  0
SECTION
  2
HEADER
  9
$ACADVER
  1
AC1018
  9
$ACADMAINTVER
 70
   104
  9
$DWGCODEPAGE
  3
ANSI_932
  9
$LASTSAVEDBY
  1
03022
  9
$CUSTOMPROPERTYTAG
  1
AmdtFileType
  9
$CUSTOMPROPERTY
  1
84
  9
$INSBASE
 10
0.0
 20
0.0
 30
0.0
  9
$EXTMIN
 10
4.982849783476922
 20
4.445068839524253
 30
-0.0015258207003583
  9
$EXTMAX
 10
277.0171515296876
 20
199.0101933402593
 30
0.0000000349246037
  9
$LIMMIN
 10
0.0
 20
0.0
  9
$LIMMAX
 10
281.9999999999998
 20
204.0
  9
$ORTHOMODE
 70
     0
  9
$REGENMODE
 70
     1
  9
$FILLMODE
 70
     1
  9
$QTEXTMODE
 70
     0
  9
$MIRRTEXT
 70
     0
  9
$LTSCALE
 40
1.0
  9
$ATTMODE
 70
     1
  9
$TEXTSIZE
 40
3.2
  9
$TRACEWID
 40
1.0
  9
$TEXTSTYLE
  7
STANDARD
  9
$CLAYER
  8
2実線(中)
  9
$CELTYPE
  6
ByLayer
  9
$CECOLOR
 62
   256
  9
$CELTSCALE
 40
1.0
  9
$DISPSILH
 70
     0
  9
$DIMSCALE
 40
1.0
  9
$DIMASZ
 40
2.5
  9
$DIMEXO
 40
1.0
  9
$DIMDLI
 40
8.0
  9
$DIMRND
 40
0.0
  9
$DIMDLE
 40
0.0
  9
$DIMEXE
 40
1.0
  9
$DIMTP
 40
0.1
  9
$DIMTM
 40
0.1
  9
$DIMTXT
 40
3.2
  9
$DIMCEN
 40
0.0
  9
$DIMTSZ
 40
0.0
  9
$DIMTOL
 70
     0
  9
$DIMLIM
 70
     0
  9
$DIMTIH
 70
     0
  9
$DIMTOH
 70
     0
  9
$DIMSE1
 70
     0
  9
$DIMSE2
 70
     0
  9
$DIMTAD
 70
     3
  9
$DIMZIN
 70
     8
  9
$DIMBLK
  1
Open
  9
$DIMASO
 70
     1
  9
$DIMSHO
 70
     1
  9
$DIMPOST
  1

  9
$DIMAPOST
  1
"
  9
$DIMALT
 70
     0
  9
$DIMALTD
 70
     2
  9
$DIMALTF
 40
0.0393701
  9
$DIMLFAC
 40
1.0
  9
$DIMTOFL
 70
     1
  9
$DIMTVP
 40
0.0
  9
$DIMTIX
 70
     0
  9
$DIMSOXD
 70
     0
  9
$DIMSAH
 70
     0
  9
$DIMBLK1
  1

  9
$DIMBLK2
  1

  9
$DIMSTYLE
  2
JIS-KURODA
  9
$DIMCLRD
 70
     7
  9
$DIMCLRE
 70
     7
  9
$DIMCLRT
 70
     7
  9
$DIMTFAC
 40
0.71
  9
$DIMGAP
 40
1.5
  9
$DIMJUST
 70
     0
  9
$DIMSD1
 70
     0
  9
$DIMSD2
 70
     0
  9
$DIMTOLJ
 70
     0
  9
$DIMTZIN
 70
     8
  9
$DIMALTZ
 70
     0
  9
$DIMALTTZ
 70
     0
  9
$DIMUPT
 70
     0
  9
$DIMDEC
 70
     3
  9
$DIMTDEC
 70
     3
  9
$DIMALTU
 70
     2
  9
$DIMALTTD
 70
     2
  9
$DIMTXSTY
  7
STANDARD
  9
$DIMAUNIT
 70
     1
  9
$DIMADEC
 70
     3
  9
$DIMALTRND
 40
0.0
  9
$DIMAZIN
 70
     2
  9
$DIMDSEP
 70
    46
  9
$DIMATFIT
 70
     2
  9
$DIMFRAC
 70
     0
  9
$DIMLDRBLK
  1
Open
  9
$DIMLUNIT
 70
     2
  9
$DIMLWD
 70
    -1
  9
$DIMLWE
 70
    -1
  9
$DIMTMOVE
 70
     0
  9
$LUNITS
 70
     2
  9
$LUPREC
 70
     3
  9
$SKETCHINC
 40
1.0
  9
$FILLETRAD
 40
5.0
  9
$AUNITS
 70
     0
  9
$AUPREC
 70
     3
  9
$MENU
  1
.
  9
$ELEVATION
 40
0.0
  9
$PELEVATION
 40
0.0
  9
$THICKNESS
 40
0.0
  9
$LIMCHECK
 70
     0
  9
$CHAMFERA
 40
1.000000000000113
  9
$CHAMFERB
 40
1.0
  9
$CHAMFERC
 40
1.000000000000113
  9
$CHAMFERD
 40
0.7853981633974412
  9
$SKPOLY
 70
     0
  9
$TDCREATE
 40
2454544.662870370
  9
$TDUCREATE
 40
2454544.287881285
  9
$TDUPDATE
 40
2459002.470891204
  9
$TDUUPDATE
 40
2459002.095891204
  9
$TDINDWG
 40
0.2823426968
  9
$TDUSRTIMER
 40
0.2823425116
  9
$USRTIMER
 70
     1
  9
$ANGBASE
 50
0.0
  9
$ANGDIR
 70
     0
  9
$PDMODE
 70
    35
  9
$PDSIZE
 40
1.0
  9
$PLINEWID
 40
0.0
  9
$SPLFRAME
 70
     0
  9
$SPLINETYPE
 70
     6
  9
$SPLINESEGS
 70
     8
  9
$HANDSEED
  5
176CD
  9
$SURFTAB1
 70
     6
  9
$SURFTAB2
 70
     6
  9
$SURFTYPE
 70
     6
  9
$SURFU
 70
     6
  9
$SURFV
 70
     6
  9
$UCSBASE
  2

  9
$UCSNAME
  2

  9
$UCSORG
 10
0.0
 20
0.0
 30
0.0
  9
$UCSXDIR
 10
1.0
 20
0.0
 30
0.0
  9
$UCSYDIR
 10
0.0
 20
1.0
 30
0.0
  9
$UCSORTHOREF
  2

  9
$UCSORTHOVIEW
 70
     0
  9
$UCSORGTOP
 10
0.0
 20
0.0
 30
0.0
  9
$UCSORGBOTTOM
 10
0.0
 20
0.0
 30
0.0
  9
$UCSORGLEFT
 10
0.0
 20
0.0
 30
0.0
  9
$UCSORGRIGHT
 10
0.0
 20
0.0
 30
0.0
  9
$UCSORGFRONT
 10
0.0
 20
0.0
 30
0.0
  9
$UCSORGBACK
 10
0.0
 20
0.0
 30
0.0
  9
$PUCSBASE
  2

  9
$PUCSNAME
  2

  9
$PUCSORG
 10
0.0
 20
0.0
 30
0.0
  9
$PUCSXDIR
 10
1.0
 20
0.0
 30
0.0
  9
$PUCSYDIR
 10
0.0
 20
1.0
 30
0.0
  9
$PUCSORTHOREF
  2

  9
$PUCSORTHOVIEW
 70
     0
  9
$PUCSORGTOP
 10
0.0
 20
0.0
 30
0.0
  9
$PUCSORGBOTTOM
 10
0.0
 20
0.0
 30
0.0
  9
$PUCSORGLEFT
 10
0.0
 20
0.0
 30
0.0
  9
$PUCSORGRIGHT
 10
0.0
 20
0.0
 30
0.0
  9
$PUCSORGFRONT
 10
0.0
 20
0.0
 30
0.0
  9
$PUCSORGBACK
 10
0.0
 20
0.0
 30
0.0
  9
$USERI1
 70
     0
  9
$USERI2
 70
     0
  9
$USERI3
 70
     0
  9
$USERI4
 70
     0
  9
$USERI5
 70
     0
  9
$USERR1
 40
0.0
  9
$USERR2
 40
0.0
  9
$USERR3
 40
0.0
  9
$USERR4
 40
0.0
  9
$USERR5
 40
0.0
  9
$WORLDVIEW
 70
     1
  9
$SHADEDGE
 70
     3
  9
$SHADEDIF
 70
    70
  9
$TILEMODE
 70
     1
  9
$MAXACTVP
 70
    64
  9
$PINSBASE
 10
0.0
 20
0.0
 30
0.0
  9
$PLIMCHECK
 70
     0
  9
$PEXTMIN
 10
1.000000000000000E+20
 20
1.000000000000000E+20
 30
1.000000000000000E+20
  9
$PEXTMAX
 10
-1.000000000000000E+20
 20
-1.000000000000000E+20
 30
-1.000000000000000E+20
  9
$PLIMMIN
 10
-0.7937499880790711
 20
-0.7937499880790711
  9
$PLIMMAX
 10
296.2062500119209
 20
209.2062500119209
  9
$UNITMODE
 70
     0
  9
$VISRETAIN
 70
     1
  9
$PLINEGEN
 70
     0
  9
$PSLTSCALE
 70
     1
  9
$TREEDEPTH
 70
  3020
  9
$CMLSTYLE
  2
Standard
  9
$CMLJUST
 70
     0
  9
$CMLSCALE
 40
20.0
  9
$PROXYGRAPHICS
 70
     1
  9
$MEASUREMENT
 70
     1
  9
$CELWEIGHT
370
    -1
  9
$ENDCAPS
280
     0
  9
$JOINSTYLE
280
     0
  9
$LWDISPLAY
290
     0
  9
$INSUNITS
 70
     4
  9
$HYPERLINKBASE
  1

  9
$STYLESHEET
  1
tg-kuroda-monochrome.ctb
  9
$XEDIT
290
     1
  9
$CEPSNTYPE
380
     0
  9
$PSTYLEMODE
290
     1
  9
$FINGERPRINTGUID
  2
{A3275D5E-FCA2-4D87-A9A1-D4F2C5F0DDF5}
  9
$VERSIONGUID
  2
{06ADAA6E-C759-CE47-95D7-E14FE65CBFF0}
  9
$EXTNAMES
290
     1
  9
$PSVPSCALE
 40
0.0
  9
$OLESTARTUP
290
     0
  9
$SORTENTS
280
   127
  9
$INDEXCTL
280
     0
  9
$HIDETEXT
280
     0
  9
$XCLIPFRAME
290
     0
  9
$HALOGAP
280
     0
  9
$OBSCOLOR
 70
   257
  9
$OBSLTYPE
280
     0
  9
$INTERSECTIONDISPLAY
280
     0
  9
$INTERSECTIONCOLOR
 70
   257
  9
$DIMASSOC
280
     2
  9
$PROJECTNAME
  1

  0
ENDSEC
  0
SECTION
  2
CLASSES
  0
CLASS
  1
ACDBDICTIONARYWDFLT
  2
AcDbDictionaryWithDefault
  3
ObjectDBX Classes
 90
        0
 91
        1
280
     0
281
     0
  0
CLASS
  1
ACME_DOCUMENT
  2
AcMeDbDoc
  3
AcMeServices
 90
     1024
 91
        2
280
     0
281
     0
  0
CLASS
  1
ACMESCOPE
  2
AcMeScope
  3
AcMeServices
 90
     1024
 91
        1
280
     0
281
     0
  0
CLASS
  1
ACMECOMMANDHISTORY
  2
AcMeCommandHistory
  3
AcMeServices
 90
     1024
 91
        1
280
     0
281
     0
  0
CLASS
  1
DICTIONARYVAR
  2
AcDbDictionaryVar
  3
ObjectDBX Classes
 90
        0
 91
       12
280
     0
281
     0
  0
CLASS
  1
ACIMSYSVARMAN
  2
AcImSysVarManager
  3
AcMeServices
 90
     1024
 91
        5
280
     0
281
     0
  0
CLASS
  1
ACIMREALSYSVAR
  2
AcImRealSysVar
  3
AcMeServices
 90
     1024
 91
        3
280
     0
281
     0
  0
CLASS
  1
ACIMINTSYSVAR
  2
AcImIntSysVar
  3
AcMeServices
 90
     1024
 91
       30
280
     0
281
     0
  0
CLASS
  1
ACMEDRAWINGMAN
  2
AcMeDrawingMan
  3
AcMeServices
 90
     1024
 91
        0
280
     0
281
     0
  0
CLASS
  1
ACMEVIEW
  2
AcMeView
  3
AcMeServices
 90
     1024
 91
        0
280
     0
281
     0
  0
CLASS
  1
ACDBENTITYCACHE
  2
AcMeEntityCache
  3
AcMeServices
 90
     1024
 91
        1
280
     0
281
     0
  0
CLASS
  1
GSMANAGER
  2
AcMeGSManager
  3
AcMeServices
 90
     1024
 91
        0
280
     0
281
     0
  0
CLASS
  1
AMDTINTERNALREACTOR
  2
AmdtInternalReactor
  3
AcMeServices
 90
     1024
 91
        1
280
     0
281
     0
  0
CLASS
  1
ACMESTATEMGR
  2
AcMeStateMgr
  3
AcMeServices
 90
     1024
 91
        1
280
     0
281
     0
  0
CLASS
  1
ACME_DATABASE
  2
AcMeDbDatabase
  3
AcMeServices
 90
     1024
 91
        1
280
     0
281
     0
  0
CLASS
  1
ACRFINSADJUSTERMGR
  2
AcRfInsAdjusterMgr
  3
AcMeServices
 90
     1024
 91
        1
280
     0
281
     0
  0
CLASS
  1
AMGSETTINGSOBJ
  2
AmgSettingsObj
  3
"AcadM|Product Description: AutoCAD Mechanical|Company: Autodesk, Inc."
 90
     1024
 91
        4
280
     0
281
     0
  0
CLASS
  1
ACMDATADICTIONARY
  2
AcmDataDictionary
  3
"AcmSymBB|Product Description: AutoCAD Mechanical|Company: Autodesk, Inc."
 90
     1024
 91
        1
280
     0
281
     0
  0
CLASS
  1
ACMDATAENTRYBLOCK
  2
AcmDataEntryBlock
  3
"AcmSymBB" "Product Description: AutoCAD Mechanical|Company: Autodesk, Inc."
 90
     1024
 91
        3
280
     0
281
     0
  0
CLASS
  1
AMGOBJPROPCFG
  2
AmgObjPropCfg
  3
"AmgLay|Product Description: AutoCAD Mechanical|Company: Autodesk, Inc."
 90
     1024
 91
        1
280
     0
281
     0
  0
CLASS
  1
ACAMGFILTERDAT
  2
AcAmgFilterDat
  3
"AcadM|Product Description: AutoCAD Mechanical|Company: Autodesk, Inc."
 90
     1024
 91
        5
280
     0
281
     0
  0
CLASS
  1
LAYER_INDEX
  2
AcDbLayerIndex
  3
ObjectDBX Classes
 90
        0
 91
        0
280
     0
281
     0
  0
CLASS
  1
IDBUFFER
  2
AcDbIdBuffer
  3
ObjectDBX Classes
 90
        0
 91
        0
280
     0
281
     0
  0
CLASS
  1
PLOTSETTINGS
  2
AcDbPlotSettings
  3
ObjectDBX Classes
 90
        0
 91
        6
280
     0
281
     0
  0
CLASS
  1
ACIMSTRSYSVAR
  2
AcImStrSysVar
  3
AcMeServices
 90
     1024
 91
        5
280
     0
281
     0
  0
CLASS
  1
ACMSTANDARDJIS
  2
AcmStandardJIS
  3
"Amdt_StdImp|Product Description: AutoCAD Mechanical|Company: Autodesk, Inc."
 90
     1024
 91
        2
280
     0
281
     0
  0
CLASS
  1
ACMSURFSTANDARDJIS
  2
AcmSurfTextStdJIS
  3
"Amdt_StdImp|Product Description: AutoCAD Mechanical|Company: Autodesk, Inc."
 90
     1024
 91
        2
280
     0
281
     0
  0
CLASS
  1
ACMFCFSTANDARDJIS
  2
AcmFCFStdJIS
  3
"Amdt_StdImp|Product Description: AutoCAD Mechanical|Company: Autodesk, Inc."
 90
     1024
 91
        2
280
     0
281
     0
  0
CLASS
  1
ACMWELDSTANDARDJIS
  2
AcmWeldingStdJIS
  3
"Amdt_StdImp|Product Description: AutoCAD Mechanical|Company: Autodesk, Inc."
 90
     1024
 91
        2
280
     0
281
     0
  0
CLASS
  1
ACMIDSTANDARDJIS
  2
AcmIdStdJIS
  3
"Amdt_StdImp|Product Description: AutoCAD Mechanical|Company: Autodesk, Inc."
 90
     1024
 91
        2
280
     0
281
     0
  0
CLASS
  1
ACMDATUMSTANDARDJIS
  2
AcmDatumStdJIS
  3
"Amdt_StdImp|Product Description: AutoCAD Mechanical|Company: Autodesk, Inc."
 90
     1024
 91
        2
280
     0
281
     0
  0
CLASS
  1
ACMBOMSTANDARDJIS
  2
AcmBOMStdJIS
  3
"Amdt_StdImp|Product Description: AutoCAD Mechanical|Company: Autodesk, Inc."
 90
     1024
 91
        2
280
     0
281
     0
  0
CLASS
  1
ACGREFMASTER
  2
AcGrefMaster
  3
AcAttribServices
 90
     1024
 91
        1
280
     0
281
     0
  0
CLASS
  1
ACGREFACADMASTER
  2
AcGrefacadMaster
  3
AcGrefServices
 90
     1024
 91
        1
280
     0
281
     0
  0
CLASS
  1
AMIMASTER
  2
AmiMaster
  3
AmiServices
 90
     1024
 91
        1
280
     0
281
     0
  0
CLASS
  1
ACAMGLAYSTD
  2
AcAmgLayStd
  3
"AmgLay|Product Description: AutoCAD Mechanical|Company: Autodesk, Inc."
 90
     1024
 91
        4
280
     0
281
     0
  0
CLASS
  1
ACAMGDIMSTD
  2
AcAmgDimStd
  3
"AmgDim|Product Description: AutoCAD Mechanical|Company: Autodesk, Inc."
 90
     1024
 91
        4
280
     0
281
     0
  0
CLASS
  1
ACAMGTITLESTD
  2
AcAmgTitleStd
  3
"AmgTitle|Product Description: AutoCAD Mechanical|Company: Autodesk, Inc."
 90
     1024
 91
        4
280
     0
281
     0
  0
CLASS
  1
ACMDETAILSTANDARDJIS
  2
AmdtDetailSymStdJIS
  3
"Amdt_StdImp|Product Description: AutoCAD Mechanical|Company: Autodesk, Inc."
 90
     1024
 91
        2
280
     0
281
     0
  0
CLASS
  1
ACMSECTIONSTANDARDJIS
  2
AmdtSectionSymStdJIS
  3
"Amdt_StdImp|Product Description: AutoCAD Mechanical|Company: Autodesk, Inc."
 90
     1024
 91
        2
280
     0
281
     0
  0
CLASS
  1
ACMCENTERLINESTANDARDJIS
  2
AmdtCenterLineStdJIS
  3
"Amdt_StdImp|Product Description: AutoCAD Mechanical|Company: Autodesk, Inc."
 90
     1024
 91
        2
280
     0
281
     0
  0
CLASS
  1
ACMTHREADLINESTANDARDJIS
  2
AmdtThreadLineStdJIS
  3
"Amdt_StdImp|Product Description: AutoCAD Mechanical|Company: Autodesk, Inc."
 90
     1024
 91
        2
280
     0
281
     0
  0
CLASS
  1
AMDTFORMULAUPDATEDISPATCHER
  2
AmdtFormulaUpdateDispatcher
  3
AcMeServices
 90
     1024
 91
        1
280
     0
281
     0
  0
CLASS
  1
AMDTNOTE
  2
AmdtNote
  3
"AcmSymBB|Product Description: AutoCAD Mechanical|Company: Autodesk, Inc."
 90
     1024
 91
        0
280
     0
281
     1
  0
CLASS
  1
ACMSURFSYM
  2
AcmSurfaceTexture
  3
"AcmSymBB|Product Description: AutoCAD Mechanical|Company: Autodesk, Inc."
 90
     1024
 91
        0
280
     0
281
     1
  0
CLASS
  1
ACDBLINERES
  2
AcDbLineRes
  3
AcGrefServices
 90
     1024
 91
       56
280
     0
281
     0
  0
CLASS
  1
ACDBDIMENSIONRES
  2
AcDbDimensionRes
  3
"AcmSymBB" "Product Description: AutoCAD Mechanical|Company: Autodesk, Inc."
 90
     1024
 91
       61
280
     0
281
     0
  0
CLASS
  1
ACMSTANDARDANSI
  2
AcmStandardANSI
  3
"Amdt_StdImp|Product Description: AutoCAD Mechanical|Company: Autodesk, Inc."
 90
     1024
 91
        1
280
     0
281
     0
  0
CLASS
  1
ACMSURFSTANDARDANSI
  2
AcmSurfTextStdANSI
  3
"Amdt_StdImp|Product Description: AutoCAD Mechanical|Company: Autodesk, Inc."
 90
     1024
 91
        1
280
     0
281
     0
  0
CLASS
  1
ACMFCFSTANDARDANSI
  2
AcmFCFStdANSI
  3
"Amdt_StdImp|Product Description: AutoCAD Mechanical|Company: Autodesk, Inc."
 90
     1024
 91
        1
280
     0
281
     0
  0
CLASS
  1
ACMWELDSTANDARDANSI
  2
AcmWeldingStdANSI
  3
"Amdt_StdImp|Product Description: AutoCAD Mechanical|Company: Autodesk, Inc."
 90
     1024
 91
        1
280
     0
281
     0
  0
CLASS
  1
ACMIDSTANDARDANSI
  2
AcmIdStdANSI
  3
"Amdt_StdImp|Product Description: AutoCAD Mechanical|Company: Autodesk, Inc."
 90
     1024
 91
        1
280
     0
281
     0
  0
CLASS
  1
ACMDATUMSTANDARDANSI
  2
AcmDatumStdANSI
  3
"Amdt_StdImp|Product Description: AutoCAD Mechanical|Company: Autodesk, Inc."
 90
     1024
 91
        1
280
     0
281
     0
  0
CLASS
  1
ACMBOMSTANDARDANSI
  2
AcmBOMStdANSI
  3
"Amdt_StdImp|Product Description: AutoCAD Mechanical|Company: Autodesk, Inc."
 90
     1024
 91
        1
280
     0
281
     0
  0
CLASS
  1
ACMDETAILSTANDARDANSI
  2
AmdtDetailSymStdANSI
  3
"Amdt_StdImp|Product Description: AutoCAD Mechanical|Company: Autodesk, Inc."
 90
     1024
 91
        1
280
     0
281
     0
  0
CLASS
  1
ACMSECTIONSTANDARDANSI
  2
AmdtSectionSymStdANSI
  3
"Amdt_StdImp|Product Description: AutoCAD Mechanical|Company: Autodesk, Inc."
 90
     1024
 91
        1
280
     0
281
     0
  0
CLASS
  1
ACMCENTERLINESTANDARDANSI
  2
AmdtCenterLineStdANSI
  3
"Amdt_StdImp|Product Description: AutoCAD Mechanical|Company: Autodesk, Inc."
 90
     1024
 91
        1
280
     0
281
     0
  0
CLASS
  1
ACMSTANDARDISO
  2
AcmStandardISO
  3
"Amdt_StdImp|Product Description: AutoCAD Mechanical|Company: Autodesk, Inc."
 90
     1024
 91
        1
280
     0
281
     0
  0
CLASS
  1
AMDTEDGESTANDARDISO
  2
AmdtEdgeStdISO
  3
"Amdt_StdImp|Product Description: AutoCAD Mechanical|Company: Autodesk, Inc."
 90
     1024
 91
        1
280
     0
281
     0
  0
CLASS
  1
ACMSURFSTANDARDISO
  2
AcmSurfTextStdISO
  3
"Amdt_StdImp|Product Description: AutoCAD Mechanical|Company: Autodesk, Inc."
 90
     1024
 91
        1
280
     0
281
     0
  0
CLASS
  1
ACMFCFSTANDARDISO
  2
AcmFCFStdISO
  3
"Amdt_StdImp|Product Description: AutoCAD Mechanical|Company: Autodesk, Inc."
 90
     1024
 91
        1
280
     0
281
     0
  0
CLASS
  1
ACMWELDSTANDARDISO
  2
AcmWeldingStdISO
  3
"Amdt_StdImp|Product Description: AutoCAD Mechanical|Company: Autodesk, Inc."
 90
     1024
 91
        1
280
     0
281
     0
  0
CLASS
  1
ACMIDSTANDARDISO
  2
AcmIdStdISO
  3
"Amdt_StdImp|Product Description: AutoCAD Mechanical|Company: Autodesk, Inc."
 90
     1024
 91
        1
280
     0
281
     0
  0
CLASS
  1
ACMDATUMSTANDARDISO
  2
AcmDatumStdISO
  3
"Amdt_StdImp|Product Description: AutoCAD Mechanical|Company: Autodesk, Inc."
 90
     1024
 91
        1
280
     0
281
     0
  0
CLASS
  1
ACMBOMSTANDARDISO
  2
AcmBOMStdISO
  3
"Amdt_StdImp|Product Description: AutoCAD Mechanical|Company: Autodesk, Inc."
 90
     1024
 91
        1
280
     0
281
     0
  0
CLASS
  1
ACMDETAILSTANDARDISO
  2
AmdtDetailSymStdISO
  3
"Amdt_StdImp|Product Description: AutoCAD Mechanical|Company: Autodesk, Inc."
 90
     1024
 91
        1
280
     0
281
     0
  0
CLASS
  1
ACMSECTIONSTANDARDISO
  2
AmdtSectionSymStdISO
  3
"Amdt_StdImp|Product Description: AutoCAD Mechanical|Company: Autodesk, Inc."
 90
     1024
 91
        1
280
     0
281
     0
  0
CLASS
  1
ACMCENTERLINESTANDARDISO
  2
AmdtCenterLineStdISO
  3
"Amdt_StdImp|Product Description: AutoCAD Mechanical|Company: Autodesk, Inc."
 90
     1024
 91
        1
280
     0
281
     0
  0
CLASS
  1
ACMNOTESTANDARDJIS
  2
AmdtNoteStdJIS
  3
"Amdt_StdImp|Product Description: AutoCAD Mechanical|Company: Autodesk, Inc."
 90
     1024
 91
        2
280
     0
281
     0
  0
CLASS
  1
ACMNOTESTANDARDANSI
  2
AmdtNoteStdANSI
  3
"Amdt_StdImp|Product Description: AutoCAD Mechanical|Company: Autodesk, Inc."
 90
     1024
 91
        1
280
     0
281
     0
  0
CLASS
  1
ACMNOTESTANDARDISO
  2
AmdtNoteStdISO
  3
"Amdt_StdImp|Product Description: AutoCAD Mechanical|Company: Autodesk, Inc."
 90
     1024
 91
        1
280
     0
281
     0
  0
CLASS
  1
AM_DRAWING_MGR
  2
AcDmDwgMgr
  3
AcMechDwgViewMgmt
 90
     1024
 91
        1
280
     0
281
     0
  0
CLASS
  1
AM_DWG_DOCUMENT
  2
AcDmDwgDocument
  3
AcMechDwgViewMgmt
 90
     1024
 91
        1
280
     0
281
     0
  0
CLASS
  1
AM_DWG_SHEET
  2
AcDmSheet
  3
AcMechDwgViewMgmt
 90
     1024
 91
        2
280
     0
281
     0
  0
CLASS
  1
AM_VIEWDIMPARMAP
  2
AcDmViewDimParMap
  3
AcMechDwgViewMgmt
 90
     1024
 91
        2
280
     0
281
     0
  0
CLASS
  1
AM_DWGMGR_NAME
  2
AcDmDwgMgrName
  3
AcMechDwgViewMgmt
 90
     1024
 91
        1
280
     0
281
     0
  0
CLASS
  1
AMDTMENUSTATEMGR
  2
AmdtMenuStateMgr
  3
McadcomServices
 90
     1024
 91
        1
280
     0
281
     0
  0
CLASS
  1
AMDTMCOMMENUSTATE
  2
AmdtMcomMenuState
  3
McadcomServices
 90
     1024
 91
        1
280
     0
281
     0
  0
CLASS
  1
MAPIAMMOUDLE
  2
MApiAmModule
  3
MApiAmServices
 90
     1024
 91
        1
280
     0
281
     0
  0
CLASS
  1
AMDTADMENUSTATE
  2
AmdtAdMenuState
  3
DesignerServices
 90
     1024
 91
        0
280
     0
281
     0
  0
CLASS
  1
ADAPPL
  2
AcAdAppl
  3
DesignerAssemblies
 90
     1024
 91
        0
280
     0
281
     0
  0
CLASS
  1
DEPMGR
  2
AcAdDepMgr
  3
DesignerAssemblies
 90
     1024
 91
        0
280
     0
281
     0
  0
CLASS
  1
PARAMMGR
  2
AcAdParamMgr
  3
DesignerAssemblies
 90
     1024
 91
        0
280
     0
281
     0
  0
CLASS
  1
PARAMSCOPE
  2
AcAdParamScope
  3
DesignerAssemblies
 90
     1024
 91
        0
280
     0
281
     0
  0
CLASS
  1
NAMEDAPPL
  2
AcAdNamedAppl
  3
DesignerAssemblies
 90
     1024
 91
        0
280
     0
281
     0
  0
CLASS
  1
AMDTDMMENUSTATE
  2
AmdtDmMenuState
  3
AcMechDwgViewMgmt
 90
     1024
 91
        0
280
     0
281
     0
  0
CLASS
  1
AMDTAMMENUSTATE
  2
AmdtAmMenuState
  3
DesignerAssemblies_arx
 90
     1024
 91
        1
280
     0
281
     0
  0
CLASS
  1
ACAMPROJECT
  2
AcAmProject
  3
DesignerAssemblies
 90
     1024
 91
        1
280
     0
281
     0
  0
CLASS
  1
ACAMGRCOMPDEF
  2
AcAmGrCompDef
  3
DesignerAssemblies
 90
     1024
 91
        1
280
     0
281
     0
  0
CLASS
  1
ACCMCONTEXT
  2
AcCmContext
  3
DesignerAssemblies
 90
     1024
 91
        1
280
     0
281
     0
  0
CLASS
  1
ACAMCOMPDEF
  2
AcAmCompDef
  3
DesignerAssemblies
 90
     1024
 91
        1
280
     0
281
     0
  0
CLASS
  1
ACAMCOMPDEFMGR
  2
AcAmCompDefMgr
  3
DesignerAssemblies
 90
     1024
 91
        1
280
     0
281
     0
  0
CLASS
  1
AMCONTEXTMGR
  2
AcAmContextMgr
  3
DesignerAssemblies
 90
     1024
 91
        1
280
     0
281
     0
  0
CLASS
  1
ACAMCONTEXTMODELER
  2
AcAmContextModeler
  3
DesignerAssemblies
 90
     1024
 91
        1
280
     0
281
     0
  0
CLASS
  1
ACMTHREADLINESTANDARDANSI
  2
AmdtThreadLineStdANSI
  3
"Amdt_StdImp|Product Description: AutoCAD Mechanical|Company: Autodesk, Inc."
 90
     1024
 91
        1
280
     0
281
     0
  0
CLASS
  1
ACMTHREADLINESTANDARDISO
  2
AmdtThreadLineStdISO
  3
"Amdt_StdImp|Product Description: AutoCAD Mechanical|Company: Autodesk, Inc."
 90
     1024
 91
        1
280
     0
281
     0
  0
CLASS
  1
CATALOGSTATE
  2
AcAmCatalogState
  3
DesignerAssemblies_arx
 90
     1024
 91
        0
280
     0
281
     0
  0
CLASS
  1
ACAMGRCOMPDEFSET
  2
AcAmGrCompDefSet
  3
DesignerAssemblies
 90
     1024
 91
        1
280
     0
281
     0
  0
CLASS
  1
AMDTBROWSERDBTAB
  2
AmdtBrowserDbTab
  3
McadcomServices
 90
     1024
 91
        1
280
     0
281
     0
  0
CLASS
  1
CBROWSERAPPOBJECT
  2
CBrowserAppObject
  3
McadcomServices
 90
     1024
 91
        2
280
     0
281
     0
  0
CLASS
  1
DM_PLACEHOLDER
  2
AcDmSelsetPlaceholder
  3
McadcomServices
 90
     1024
 91
        1
280
     0
281
     0
  0
CLASS
  1
TABLESTYLE
  2
AcDbTableStyle
  3
ObjectDBX Classes
 90
     4095
 91
        2
280
     0
281
     0
  0
CLASS
  1
AMDTNOTETEMPLATEDB
  2
AmdtNoteTemplateDB
  3
"AcmSymBB" "Product Description: AutoCAD Mechanical|Company: Autodesk, Inc."
 90
     1024
 91
        6
280
     0
281
     0
  0
CLASS
  1
AMDTDETAILSYM
  2
AmdtDetailSym
  3
"AcmSymBB|Product Description: AutoCAD Mechanical|Company: Autodesk, Inc."
 90
     1024
 91
        0
280
     0
281
     1
  0
CLASS
  1
AMDTDETAILSYMLABEL
  2
AmdtDetailSymLabel
  3
"AcmSymBB|Product Description: AutoCAD Mechanical|Company: Autodesk, Inc."
 90
     1024
 91
        0
280
     0
281
     1
  0
CLASS
  1
ACMDATAENTRYPART
  2
AcmDataEntryPart
  3
"AcmSymBB" "Product Description: AutoCAD Mechanical|Company: Autodesk, Inc."
 90
     1024
 91
        0
280
     0
281
     0
  0
CLASS
  1
ACMPARTREF
  2
AcmPartRef
  3
"AcmSymBB|Product Description: AutoCAD Mechanical|Company: Autodesk, Inc."
 90
     1024
 91
        0
280
     0
281
     1
  0
CLASS
  1
SORTENTSTABLE
  2
AcDbSortentsTable
  3
ObjectDBX Classes
 90
        0
 91
        1
280
     0
281
     0
  0
CLASS
  1
ACMBOM
  2
AcmBom
  3
"AcmSymBB|Product Description: AutoCAD Mechanical|Company: Autodesk, Inc."
 90
     1024
 91
        1
280
     0
281
     0
  0
CLASS
  1
ACAD_TABLE
  2
AcDbTable
  3
ObjectDBX Classes
 90
     1025
 91
        0
280
     0
281
     1
  0
CLASS
  1
ACMBOMROW
  2
AcmBomRow
  3
"AcmSymBB|Product Description: AutoCAD Mechanical|Company: Autodesk, Inc."
 90
     1024
 91
        0
280
     0
281
     0
  0
CLASS
  1
ACMPICKOBJ
  2
AcmPickEnt
  3
"AcmSymBB|Product Description: AutoCAD Mechanical|Company: Autodesk, Inc."
 90
     1024
 91
        0
280
     0
281
     1
  0
CLASS
  1
ACMBALLOON
  2
AcmBalloon
  3
"AcmSymBB|Product Description: AutoCAD Mechanical|Company: Autodesk, Inc."
 90
     1024
 91
        0
280
     0
281
     1
  0
CLASS
  1
ACMDATUMID
  2
AcmDatumId
  3
"AcmSymBB|Product Description: AutoCAD Mechanical|Company: Autodesk, Inc."
 90
     1024
 91
        0
280
     0
281
     1
  0
CLASS
  1
ACMDIMBREAKPERSREACTOR
  2
AcmDimBreakPersReactor
  3
"AmgDim" "Product Description: AutoCAD Mechanical|Company: Autodesk, Inc."
 90
     1024
 91
        0
280
     0
281
     0
  0
CLASS
  1
ACMPARTLIST
  2
AcmPartList
  3
"AcmSymBB|Product Description: AutoCAD Mechanical|Company: Autodesk, Inc."
 90
     1024
 91
        0
280
     0
281
     1
  0
CLASS
  1
ACRFINSADJ
  2
AcRfInsAdjuster
  3
AcMeServices
 90
     1024
 91
        0
280
     0
281
     0
  0
CLASS
  1
ACMFCFRAME
  2
AcmFCF
  3
"AcmSymBB|Product Description: AutoCAD Mechanical|Company: Autodesk, Inc."
 90
     1024
 91
        0
280
     0
281
     1
  0
CLASS
  1
DIMASSOC
  2
AcDbDimAssoc
  3
"AcDbDimAssoc|Product Desc:     AcDim ARX App For Dimension|Company:          Autodesk, Inc.|WEB Address:      www.autodesk.com"
 90
        0
 91
        1
280
     0
281
     0
  0
CLASS
  1
VISUALSTYLE
  2
AcDbVisualStyle
  3
ObjectDBX Classes
 90
     4095
 91
       26
280
     0
281
     0
  0
CLASS
  1
SCALE
  2
AcDbScale
  3
ObjectDBX Classes
 90
     1153
 91
       33
280
     0
281
     0
  0
CLASS
  1
MATERIAL
  2
AcDbMaterial
  3
ObjectDBX Classes
 90
     1153
 91
        3
280
     0
281
     0
  0
CLASS
  1
MLEADERSTYLE
  2
AcDbMLeaderStyle
  3
ACDB_MLEADERSTYLE_CLASS
 90
     4095
 91
        1
280
     0
281
     0
  0
CLASS
  1
ACRFATTGENMGR
  2
AcRfAttGeneralMgr
  3
AcAttribServices
 90
     1024
 91
        1
280
     0
281
     0
  0
CLASS
  1
ACRFOBJATTMGR
  2
AcRfObjAttGroupMgr
  3
AcAttribServices
 90
     1024
 91
        1
280
     0
281
     0
  0
CLASS
  1
ACRFMCADAPIATTHOLDER
  2
AcRfMCADAPIAttHolder
  3
AcAttribServices
 90
     1024
 91
        1
280
     0
281
     0
  0
CLASS
  1
AMDTSYSATTR
  2
AmdtSystemAttribute
  3
AcAttribServices
 90
     1024
 91
        1
280
     0
281
     0
  0
CLASS
  1
ACMTAPERSTANDARDJIS
  2
AcmTaperStdJIS
  3
"Amdt_StdImp|Product Description: AutoCAD Mechanical|Company: Autodesk, Inc."
 90
     1024
 91
        2
280
     0
281
     0
  0
CLASS
  1
ACMANOOTATIONVIEWSTANDARDJIS
  2
AmdtAnViewStdJIS
  3
"Amdt_StdImp|Product Description: AutoCAD Mechanical|Company: Autodesk, Inc."
 90
     1024
 91
        2
280
     0
281
     0
  0
CLASS
  1
ACMTAPERSTANDARDANSI
  2
AcmTaperStdANSI
  3
"Amdt_StdImp|Product Description: AutoCAD Mechanical|Company: Autodesk, Inc."
 90
     1024
 91
        1
280
     0
281
     0
  0
CLASS
  1
ACMANOOTATIONVIEWSTANDARDANSI
  2
AmdtAnViewStdANSI
  3
"Amdt_StdImp|Product Description: AutoCAD Mechanical|Company: Autodesk, Inc."
 90
     1024
 91
        1
280
     0
281
     0
  0
CLASS
  1
ACMTAPERSTANDARDISO
  2
AcmTaperStdISO
  3
"Amdt_StdImp|Product Description: AutoCAD Mechanical|Company: Autodesk, Inc."
 90
     1024
 91
        1
280
     0
281
     0
  0
CLASS
  1
ACMANOOTATIONVIEWSTANDARDISO
  2
AmdtAnViewStdISO
  3
"Amdt_StdImp|Product Description: AutoCAD Mechanical|Company: Autodesk, Inc."
 90
     1024
 91
        1
280
     0
281
     0
  0
CLASS
  1
CAMSSTRUCTBTNSTATE
  2
StructBtnState
  3
DesignerAssemblies_arx
 90
     1024
 91
        1
280
     0
281
     0
  0
CLASS
  1
CELLSTYLEMAP
  2
AcDbCellStyleMap
  3
ObjectDBX Classes
 90
     1152
 91
        2
280
     0
281
     0
  0
CLASS
  1
AMDTEDGESTANDARDJIS
  2
AmdtEdgeStdJIS
  3
"Amdt_StdImp|Product Description: AutoCAD Mechanical|Company: Autodesk, Inc."
 90
     1024
 91
        2
280
     0
281
     0
  0
CLASS
  1
EXACXREFPANELOBJECT
  2
ExAcXREFPanelObject
  3
EXAC_ESW
 90
     1025
 91
        0
280
     0
281
     0
  0
CLASS
  1
NPOCOLLECTION
  2
AcDbImpNonPersistentObjectsCollection
  3
ObjectDBX Classes
 90
     1153
 91
        0
280
     0
281
     0
  0
CLASS
  1
ACDBSECTIONVIEWSTYLE
  2
AcDbSectionViewStyle
  3
ObjectDBX Classes
 90
     1025
 91
        5
280
     0
281
     0
  0
CLASS
  1
ACDBDETAILVIEWSTYLE
  2
AcDbDetailViewStyle
  3
ObjectDBX Classes
 90
     1025
 91
        5
280
     0
281
     0
  0
CLASS
  1
ACMSECTIONSTANDARDCUSTOM
  2
AmdtSectionSymStdCustom
  3
"Amdt_StdImp|Product Description: AutoCAD Mechanical|Company: Autodesk, Inc."
 90
     1024
 91
        4
280
     0
281
     0
  0
CLASS
  1
ACMDETAILTANDARDCUSTOM
  2
AmdtDetailSymStdCustom
  3
"Amdt_StdImp|Product Description: AutoCAD Mechanical|Company: Autodesk, Inc."
 90
     1024
 91
        4
280
     0
281
     0
  0
CLASS
  1
FIELD
  2
AcDbField
  3
ObjectDBX Classes
 90
     1152
 91
       15
280
     0
281
     0
  0
CLASS
  1
FIELDLIST
  2
AcDbFieldList
  3
ObjectDBX Classes
 90
     1152
 91
        1
280
     0
281
     0
  0
ENDSEC
  0
SECTION
  2
TABLES
  0
TABLE
  2
VPORT
  5
8
330
0
100
AcDbSymbolTable
 70
     1
  0
VPORT
  5
14CBA
330
8
100
AcDbSymbolTableRecord
100
AcDbViewportTableRecord
  2
*Active
 70
     0
 10
0.0
 20
0.0
 11
1.0
 21
1.0
 12
141.0000006565821
 22
101.7276310898918
 13
0.0
 23
0.0
 14
2.5
 24
2.5
 15
10.0
 25
10.0
 16
0.0
 26
0.0
 36
1.0
 17
0.0
 27
0.0
 37
0.0
 40
195.8203833684818
 41
1.76318622174381
 42
50.0
 43
0.0
 44
0.0
 50
0.0
 51
0.0
 71
    16
 72
  2000
 73
     1
 74
     3
 75
     0
 76
     0
 77
     0
 78
     0
281
     0
 65
     1
110
0.0
120
0.0
130
0.0
111
1.0
121
0.0
131
0.0
112
0.0
122
1.0
132
0.0
 79
     0
146
0.0
1001
ACAD_NAV_VCDISPLAY
1070
     3
  0
ENDTAB
  0
TABLE
  2
LTYPE
  5
5
330
0
100
AcDbSymbolTable
 70
    22
  0
LTYPE
  5
14
330
5
100
AcDbSymbolTableRecord
100
AcDbLinetypeTableRecord
  2
ByBlock
 70
     0
  3

 72
    65
 73
     0
 40
0.0
  0
LTYPE
  5
15
330
5
100
AcDbSymbolTableRecord
100
AcDbLinetypeTableRecord
  2
ByLayer
 70
     0
  3

 72
    65
 73
     0
 40
0.0
  0
LTYPE
  5
16
330
5
100
AcDbSymbolTableRecord
100
AcDbLinetypeTableRecord
  2
Continuous
 70
     0
  3
Solid line
 72
    65
 73
     0
 40
0.0
  0
LTYPE
  5
4B
330
5
100
AcDbSymbolTableRecord
100
AcDbLinetypeTableRecord
  2
AM_ISO02W050
 70
     0
  3
__ __ __ __ __ __ __ __ __ __ __ __ __ __ __
 72
    65
 73
     2
 40
7.5
 49
6.0
 74
     0
 49
-1.5
 74
     0
  0
LTYPE
  5
4C
330
5
100
AcDbSymbolTableRecord
100
AcDbLinetypeTableRecord
  2
AM_ISO08W050
 70
     0
  3
____ . ____ . ____ . ____ . ____ . ____ . ____
 72
    65
 73
     4
 40
18.0
 49
12.0
 74
     0
 49
-1.5
 74
     0
 49
3.0
 74
     0
 49
-1.5
 74
     0
  0
LTYPE
  5
4D
330
5
100
AcDbSymbolTableRecord
100
AcDbLinetypeTableRecord
  2
AM_ISO09W050
 70
     0
  3
_____ . . _____ . . _____ . . ____ .. ____
 72
    65
 73
     6
 40
22.5
 49
12.0
 74
     0
 49
-1.5
 74
     0
 49
3.0
 74
     0
 49
-1.5
 74
     0
 49
3.0
 74
     0
 49
-1.5
 74
     0
  0
LTYPE
  5
4E
330
5
100
AcDbSymbolTableRecord
100
AcDbLinetypeTableRecord
  2
Amconstr
 70
     0
  3
_______________________
 72
    65
 73
     2
 40
9999.0
 49
9999.0
 74
     0
 49
0.0
 74
     0
  0
LTYPE
  5
4F
330
5
100
AcDbSymbolTableRecord
100
AcDbLinetypeTableRecord
  2
AM_ISO02W050x2
 70
     0
  3
 _ _ _ _ _ _ _ _ _ _ _ _
 72
    65
 73
     2
 40
3.75
 49
3.0
 74
     0
 49
-0.75
 74
     0
  0
LTYPE
  5
50
330
5
100
AcDbSymbolTableRecord
100
AcDbLinetypeTableRecord
  2
AM_ISO08W050x2
 70
     0
  3
__ . __ . __ . __ . __ . __
 72
    65
 73
     4
 40
9.0
 49
6.0
 74
     0
 49
-0.75
 74
     0
 49
1.5
 74
     0
 49
-0.75
 74
     0
  0
LTYPE
  5
53
330
5
100
AcDbSymbolTableRecord
100
AcDbLinetypeTableRecord
  2
Amzigzag
 70
     0
  3
/\/-/\/-/\/-/\/-/\/-/\/
 72
    65
 73
     2
 40
11.0001
 49
0.0001
 74
     4
 75
   136
340
12BB6
 46
0.04
 50
0.0
 44
0.0
 45
0.0
 49
-11.0
 74
     0
  0
LTYPE
  5
31D
330
5
100
AcDbSymbolTableRecord
100
AcDbLinetypeTableRecord
  2
ACJISTGB
 70
     0
  3
__ . . __ . .
 72
    65
 73
     6
 40
9.0
 49
4.0
 74
     0
 49
-1.0
 74
     0
 49
1.0
 74
     0
 49
-1.0
 74
     0
 49
1.0
 74
     0
 49
-1.0
 74
     0
  0
LTYPE
  5
31E
330
5
100
AcDbSymbolTableRecord
100
AcDbLinetypeTableRecord
  2
ACJISTGL
 70
     0
  3
_ _ _ _ _
 72
    65
 73
     2
 40
3.0
 49
2.0
 74
     0
 49
-1.0
 74
     0
  0
LTYPE
  5
476
330
5
100
AcDbSymbolTableRecord
100
AcDbLinetypeTableRecord
  2
CENTER
 70
     0
  3
__ . __
 72
    65
 73
     4
 40
7.0
 49
4.0
 74
     0
 49
-1.0
 74
     0
 49
1.0
 74
     0
 49
-1.0
 74
     0
  0
LTYPE
  5
759
330
5
100
AcDbSymbolTableRecord
100
AcDbLinetypeTableRecord
  2
CENTER2
 70
     0
  3
Center (.5x) ___ _ ___ _ ___ _ ___ _ ___ _ ___
 72
    65
 73
     4
 40
28.575
 49
19.05
 74
     0
 49
-3.174999999999999
 74
     0
 49
3.174999999999999
 74
     0
 49
-3.174999999999999
 74
     0
  0
LTYPE
  5
75C
330
5
100
AcDbSymbolTableRecord
100
AcDbLinetypeTableRecord
  2
PHANTOM2
 70
     0
  3
Phantom (.5x) ___ _ _ ___ _ _ ___ _ _ ___ _ _
 72
    65
 73
     6
 40
31.75
 49
15.875
 74
     0
 49
-3.174999999999999
 74
     0
 49
3.174999999999999
 74
     0
 49
-3.174999999999999
 74
     0
 49
3.174999999999999
 74
     0
 49
-3.174999999999999
 74
     0
  0
LTYPE
  5
B773
330
5
100
AcDbSymbolTableRecord
100
AcDbLinetypeTableRecord
  2
ACANSTGB
 70
     0
  3
__ . . __ . .
 72
    65
 73
     6
 40
0.35433070866
 49
0.15748031496
 74
     0
 49
-0.03937007874
 74
     0
 49
0.03937007874
 74
     0
 49
-0.03937007874
 74
     0
 49
0.03937007874
 74
     0
 49
-0.03937007874
 74
     0
  0
LTYPE
  5
B774
330
5
100
AcDbSymbolTableRecord
100
AcDbLinetypeTableRecord
  2
ACANSTGL
 70
     0
  3
_ _ _ _ _
 72
    65
 73
     2
 40
0.11811023622
 49
0.07874015748
 74
     0
 49
-0.03937007874
 74
     0
  0
LTYPE
  5
C4E8
330
5
100
AcDbSymbolTableRecord
100
AcDbLinetypeTableRecord
  2
ACISOWELD
 70
     0
  3
_ _ _ _ _
 72
    65
 73
     2
 40
2.0
 49
2.0
 74
     0
 49
-1.0
 74
     0
  0
LTYPE
  5
C4E9
330
5
100
AcDbSymbolTableRecord
100
AcDbLinetypeTableRecord
  2
ACISOTGB
 70
     0
  3
__ . . __ . .
 72
    65
 73
     6
 40
9.0
 49
4.0
 74
     0
 49
-1.0
 74
     0
 49
1.0
 74
     0
 49
-1.0
 74
     0
 49
1.0
 74
     0
 49
-1.0
 74
     0
  0
LTYPE
  5
C4EA
330
5
100
AcDbSymbolTableRecord
100
AcDbLinetypeTableRecord
  2
ACISOTGL
 70
     0
  3
_ _ _ _ _
 72
    65
 73
     2
 40
3.0
 49
2.0
 74
     0
 49
-1.0
 74
     0
  0
LTYPE
  5
113DF
330
5
100
AcDbSymbolTableRecord
100
AcDbLinetypeTableRecord
  2
kuroda_hasen1
 70
     0
  3
dash __ __ __ __ __ __ __ __ __ __ __ __ __
 72
    65
 73
     2
 40
2.5
 49
2.0
 74
     0
 49
-0.5
 74
     0
  0
LTYPE
  5
113E0
330
5
100
AcDbSymbolTableRecord
100
AcDbLinetypeTableRecord
  2
kuroda_ittensasen1
 70
     0
  3
long-dash short-dash ____ __ ____ __ ____ _
 72
    65
 73
     4
 40
19.0
 49
13.0
 74
     0
 49
-2.0
 74
     0
 49
2.0
 74
     0
 49
-2.0
 74
     0
  0
LTYPE
  5
113E1
330
5
100
AcDbSymbolTableRecord
100
AcDbLinetypeTableRecord
  2
kuroda_nitensasen1
 70
     0
  3
long-dash double-short-dash ____ __ __ ____
 72
    65
 73
     6
 40
23.0
 49
13.0
 74
     0
 49
-2.0
 74
     0
 49
2.0
 74
     0
 49
-2.0
 74
     0
 49
2.0
 74
     0
 49
-2.0
 74
     0
  0
LTYPE
  5
11404
330
5
100
AcDbSymbolTableRecord
100
AcDbLinetypeTableRecord
  2
HIDDEN
 70
     0
  3
Hidden __ __ __ __ __ __ __ __ __ __ __ __ __ _
 72
    65
 73
     2
 40
9.524999999999998
 49
6.349999999999999
 74
     0
 49
-3.174999999999999
 74
     0
  0
ENDTAB
  0
TABLE
  2
LAYER
  5
2
102
{ACAD_XDICTIONARY
360
11468
102
}
330
0
100
AcDbSymbolTable
 70
    18
  0
LAYER
  5
10
102
{ACAD_XDICTIONARY
360
158D6
102
}
330
2
100
AcDbSymbolTableRecord
100
AcDbLayerTableRecord
  2
0
 70
     0
 62
     7
  6
Continuous
370
    -3
390
F
  0
LAYER
  5
B4
330
2
100
AcDbSymbolTableRecord
100
AcDbLayerTableRecord
  2
Defpoints
 70
     0
 62
     7
  6
Continuous
290
     0
370
    -3
390
F
  0
LAYER
  5
263
102
{ACAD_XDICTIONARY
360
158D8
102
}
330
2
100
AcDbSymbolTableRecord
100
AcDbLayerTableRecord
  2
outline
 70
     0
 62
     4
  6
Continuous
370
    50
390
F
1001
AcAecLayerStandard
1000

1000

  0
LAYER
  5
D3CF
102
{ACAD_XDICTIONARY
360
158DA
102
}
330
2
100
AcDbSymbolTableRecord
100
AcDbLayerTableRecord
  2
AM_VIEWS
 70
     0
 62
     1
  6
Continuous
290
     0
370
    25
390
F
1001
AcAecLayerStandard
1000

1000

  0
LAYER
  5
120CB
102
{ACAD_XDICTIONARY
360
158DC
102
}
330
2
100
AcDbSymbolTableRecord
100
AcDbLayerTableRecord
  2
1実線(太)
 70
     0
 62
     3
  6
Continuous
370
    50
390
F
1001
AcAecLayerStandard
1000

1000

  0
LAYER
  5
120CE
102
{ACAD_XDICTIONARY
360
158DE
102
}
330
2
100
AcDbSymbolTableRecord
100
AcDbLayerTableRecord
  2
2実線(中)
 70
     0
 62
     4
  6
Continuous
370
    50
390
F
1001
AcAecLayerStandard
1000

1000

  0
LAYER
  5
120D1
102
{ACAD_XDICTIONARY
360
158E0
102
}
330
2
100
AcDbSymbolTableRecord
100
AcDbLayerTableRecord
  2
3実線(細)
 70
     0
 62
     2
  6
Continuous
370
    25
390
F
1001
AcAecLayerStandard
1000

1000

  0
LAYER
  5
120D7
102
{ACAD_XDICTIONARY
360
158E2
102
}
330
2
100
AcDbSymbolTableRecord
100
AcDbLayerTableRecord
  2
4破線(中)
 70
     0
 62
     4
  6
ACISOWELD
370
    40
390
F
1001
AcAecLayerStandard
1000

1000

  0
LAYER
  5
120DA
102
{ACAD_XDICTIONARY
360
158E4
102
}
330
2
100
AcDbSymbolTableRecord
100
AcDbLayerTableRecord
  2
5破線(細)
 70
     0
 62
     2
  6
ACISOWELD
370
    25
390
F
1001
AcAecLayerStandard
1000

1000

  0
LAYER
  5
120DB
102
{ACAD_XDICTIONARY
360
158E6
102
}
330
2
100
AcDbSymbolTableRecord
100
AcDbLayerTableRecord
  2
6一点鎖線(細)
 70
     0
 62
     2
  6
CENTER
370
    25
390
F
1001
AcAecLayerStandard
1000

1000

  0
LAYER
  5
120DC
102
{ACAD_XDICTIONARY
360
158E8
102
}
330
2
100
AcDbSymbolTableRecord
100
AcDbLayerTableRecord
  2
7二点鎖線(細)
 70
     0
 62
     2
  6
ACISOTGB
370
    25
390
F
1001
AcAecLayerStandard
1000

1000

  0
LAYER
  5
120E3
102
{ACAD_XDICTIONARY
360
158EA
102
}
330
2
100
AcDbSymbolTableRecord
100
AcDbLayerTableRecord
  2
8文字(細)
 70
     0
 62
     7
  6
Continuous
370
    25
390
F
1001
AcAecLayerStandard
1000

1000

  0
LAYER
  5
12B88
102
{ACAD_XDICTIONARY
360
158EC
102
}
330
2
100
AcDbSymbolTableRecord
100
AcDbLayerTableRecord
  2
9透明線
 70
     0
 62
     1
  6
Continuous
290
     0
370
    25
390
F
1001
AcAecLayerStandard
1000

1000

  0
LAYER
  5
14D4D
102
{ACAD_XDICTIONARY
360
158EE
102
}
330
2
100
AcDbSymbolTableRecord
100
AcDbLayerTableRecord
  2
dimension
 70
     0
 62
     7
  6
Continuous
370
    25
390
F
1001
AcAecLayerStandard
1000

1000

  0
LAYER
  5
14DD8
102
{ACAD_XDICTIONARY
360
158F0
102
}
330
2
100
AcDbSymbolTableRecord
100
AcDbLayerTableRecord
  2
2実線_中_
 70
     0
 62
     4
  6
Continuous
370
    -3
390
F
  0
LAYER
  5
14DD9
102
{ACAD_XDICTIONARY
360
158F2
102
}
330
2
100
AcDbSymbolTableRecord
100
AcDbLayerTableRecord
  2
AM_CL
 70
     0
 62
     1
  6
Amconstr
370
    25
390
F
  0
LAYER
  5
14DDA
102
{ACAD_XDICTIONARY
360
158F4
102
}
330
2
100
AcDbSymbolTableRecord
100
AcDbLayerTableRecord
  2
AM_5
 70
     0
 62
     3
  6
Continuous
370
    -3
390
F
  0
LAYER
  5
14DDC
102
{ACAD_XDICTIONARY
360
158F8
102
}
330
2
100
AcDbSymbolTableRecord
100
AcDbLayerTableRecord
  2
PV0001_1
 70
     0
 62
     7
  6
Continuous
370
    -3
390
F
  0
ENDTAB
  0
TABLE
  2
STYLE
  5
3
330
0
100
AcDbSymbolTable
 70
    10
  0
STYLE
  5
11
330
3
100
AcDbSymbolTableRecord
100
AcDbTextStyleTableRecord
  2
STANDARD
 70
     0
 40
0.0
 41
1.0
 50
0.0
 71
     0
 42
3.2
  3
romans.shx
  4
EXTFONT.SHX
  0
STYLE
  5
52
330
3
100
AcDbSymbolTableRecord
100
AcDbTextStyleTableRecord
  2

 70
     1
 40
0.0
 41
1.0
 50
0.0
 71
     0
 42
2.5
  3
ltypeshp.shx
  4

  0
STYLE
  5
315
330
3
100
AcDbSymbolTableRecord
100
AcDbTextStyleTableRecord
  2
ACJISTS
 70
     0
 40
1.0
 41
1.0
 50
0.0
 71
     0
 42
2.5
  3
isocp.shx
  4
bigfont.shx
  0
STYLE
  5
31C
330
3
100
AcDbSymbolTableRecord
100
AcDbTextStyleTableRecord
  2
ACJISGDT
 70
     0
 40
0.0
 41
1.0
 50
0.0
 71
     0
 42
2.5
  3
AMGDT
  4

  0
STYLE
  5
80B
330
3
100
AcDbSymbolTableRecord
100
AcDbTextStyleTableRecord
  2
DIM
 70
     0
 40
0.0
 41
1.0
 50
0.0
 71
     0
 42
2.5
  3
monotxt.shx
  4
extfont.shx
  0
STYLE
  5
B782
330
3
100
AcDbSymbolTableRecord
100
AcDbTextStyleTableRecord
  2
ACANSTS
 70
     0
 40
1.0
 41
1.0
 50
0.0
 71
     0
 42
5.0
  3
romans.shx
  4
extfont.shx
  0
STYLE
  5
B783
330
3
100
AcDbSymbolTableRecord
100
AcDbTextStyleTableRecord
  2
ACANSGDT
 70
     0
 40
0.0
 41
1.0
 50
0.0
 71
     0
 42
5.0
  3
amgdtans.shx
  4

  0
STYLE
  5
C4EE
330
3
100
AcDbSymbolTableRecord
100
AcDbTextStyleTableRecord
  2
ACISOTS
 70
     0
 40
1.0
 41
1.0
 50
0.0
 71
     0
 42
2.5
  3
isocp.shx
  4
extfont.shx
  0
STYLE
  5
C4EF
330
3
100
AcDbSymbolTableRecord
100
AcDbTextStyleTableRecord
  2
ACISOGDT
 70
     0
 40
0.0
 41
1.0
 50
0.0
 71
     0
 42
2.5
  3
amgdt.shx
  4

  0
STYLE
  5
12BB6
330
3
100
AcDbSymbolTableRecord
100
AcDbTextStyleTableRecord
  2

 70
     1
 40
0.0
 41
1.0
 50
0.0
 71
     0
 42
3.2
  3
genltshp.shx
  4

  0
ENDTAB
  0
TABLE
  2
VIEW
  5
6
330
0
100
AcDbSymbolTable
 70
     6
  0
VIEW
  5
BC30
330
6
100
AcDbSymbolTableRecord
100
AcDbViewTableRecord
  2
AM_VIEW1
 70
     0
 40
143.5
 10
945.6179518394051
 20
606.6943766720156
 41
211.8012895662368
 11
0.0
 21
0.0
 31
1.0
 12
0.0
 22
0.0
 32
0.0
 42
50.0
 43
0.0
 44
0.0
 50
0.0
 71
    16
281
     0
 72
     0
  0
VIEW
  5
BC31
330
6
100
AcDbSymbolTableRecord
100
AcDbViewTableRecord
  2
AM_VIEW2
 70
     0
 40
143.5
 10
1140.816662273168
 20
606.6943766720156
 41
211.8012895662368
 11
0.0
 21
0.0
 31
1.0
 12
0.0
 22
0.0
 32
0.0
 42
50.0
 43
0.0
 44
0.0
 50
0.0
 71
    16
281
     0
 72
     0
  0
VIEW
  5
BC32
330
6
100
AcDbSymbolTableRecord
100
AcDbViewTableRecord
  2
AM_VIEW3
 70
     0
 40
143.5000000000001
 10
945.6179518394051
 20
463.1943766720154
 41
211.8012895662368
 11
0.0
 21
0.0
 31
1.0
 12
0.0
 22
0.0
 32
0.0
 42
50.0
 43
0.0
 44
0.0
 50
0.0
 71
    16
281
     0
 72
     0
  0
VIEW
  5
BC33
330
6
100
AcDbSymbolTableRecord
100
AcDbViewTableRecord
  2
AM_VIEW4
 70
     0
 40
143.5000000000001
 10
1140.816662273168
 20
463.1943766720154
 41
211.8012895662368
 11
0.0
 21
0.0
 31
1.0
 12
0.0
 22
0.0
 32
0.0
 42
50.0
 43
0.0
 44
0.0
 50
0.0
 71
    16
281
     0
 72
     0
  0
VIEW
  5
BC34
330
6
100
AcDbSymbolTableRecord
100
AcDbViewTableRecord
  2
AM_VIEW5
 70
     0
 40
143.5
 10
1043.217307056286
 20
534.9443766720155
 41
211.8012895662368
 11
0.0
 21
0.0
 31
1.0
 12
0.0
 22
0.0
 32
0.0
 42
50.0
 43
0.0
 44
0.0
 50
0.0
 71
    16
281
     0
 72
     0
  0
VIEW
  5
BC35
330
6
100
AcDbSymbolTableRecord
100
AcDbViewTableRecord
  2
AM_VIEW6
 70
     0
 40
286.9971300000002
 10
1043.217307056286
 20
534.9443766720155
 41
423.5983431066824
 11
0.0
 21
0.0
 31
1.0
 12
0.0
 22
0.0
 32
0.0
 42
50.0
 43
0.0
 44
0.0
 50
0.0
 71
    16
281
     0
 72
     0
  0
ENDTAB
  0
TABLE
  2
UCS
  5
7
330
0
100
AcDbSymbolTable
 70
     0
  0
ENDTAB
  0
TABLE
  2
APPID
  5
9
330
0
100
AcDbSymbolTable
 70
    53
  0
APPID
  5
12
330
9
100
AcDbSymbolTableRecord
100
AcDbRegAppTableRecord
  2
ACAD
 70
     0
  0
APPID
  5
2C
330
9
100
AcDbSymbolTableRecord
100
AcDbRegAppTableRecord
  2
MCAD_NO_VIS
 70
     0
  0
APPID
  5
2D
330
9
100
AcDbSymbolTableRecord
100
AcDbRegAppTableRecord
  2
ACAD_TEMP_GRAPHIC
 70
     0
  0
APPID
  5
87
330
9
100
AcDbSymbolTableRecord
100
AcDbRegAppTableRecord
  2
GENIUS_GENREC_14
 70
     0
  0
APPID
  5
88
330
9
100
AcDbSymbolTableRecord
100
AcDbRegAppTableRecord
  2
GENIUS_GENODEF_13
 70
     0
  0
APPID
  5
89
330
9
100
AcDbSymbolTableRecord
100
AcDbRegAppTableRecord
  2
GENIUS_GENOBJ-N-REC_13
 70
     0
  0
APPID
  5
A3
330
9
100
AcDbSymbolTableRecord
100
AcDbRegAppTableRecord
  2
GENIUS_GENOBJ-N-CEN_13
 70
     0
  0
APPID
  5
EE
330
9
100
AcDbSymbolTableRecord
100
AcDbRegAppTableRecord
  2
GENIUS_GENDTOL_13
 70
     0
  0
APPID
  5
217
330
9
100
AcDbSymbolTableRecord
100
AcDbRegAppTableRecord
  2
GENIUS_GENDIMSH_14
 70
     0
  0
APPID
  5
46E
330
9
100
AcDbSymbolTableRecord
100
AcDbRegAppTableRecord
  2
ACATTRIBSERVICES
 70
     0
  0
APPID
  5
2652
330
9
100
AcDbSymbolTableRecord
100
AcDbRegAppTableRecord
  2
GENIUS_GENFIL_13
 70
     0
  0
APPID
  5
2653
330
9
100
AcDbSymbolTableRecord
100
AcDbRegAppTableRecord
  2
GENIUS_GENOBJ-N-CHA_13
 70
     0
  0
APPID
  5
265C
330
9
100
AcDbSymbolTableRecord
100
AcDbRegAppTableRecord
  2
GENIUS_GENOLIS_13
 70
     0
  0
APPID
  5
265D
330
9
100
AcDbSymbolTableRecord
100
AcDbRegAppTableRecord
  2
GENIUS_GENOENT_13
 70
     0
  0
APPID
  5
265E
330
9
100
AcDbSymbolTableRecord
100
AcDbRegAppTableRecord
  2
GENIUS_GENOREF_13
 70
     0
  0
APPID
  5
ABA5
330
9
100
AcDbSymbolTableRecord
100
AcDbRegAppTableRecord
  2
GENIUS_GENOBJ-N-CRS_13
 70
     0
  0
APPID
  5
BAB1
330
9
100
AcDbSymbolTableRecord
100
AcDbRegAppTableRecord
  2
GENIUS_GENOBJ-N-TIT_13
 70
     0
  0
APPID
  5
BAB2
330
9
100
AcDbSymbolTableRecord
100
AcDbRegAppTableRecord
  2
GENIUS_GENTITLE_13
 70
     0
  0
APPID
  5
BAB3
330
9
100
AcDbSymbolTableRecord
100
AcDbRegAppTableRecord
  2
GENIUS_GENSCREG_15
 70
     0
  0
APPID
  5
BAB4
330
9
100
AcDbSymbolTableRecord
100
AcDbRegAppTableRecord
  2
GENIUS_GENOBJ-N-SDF_13
 70
     0
  0
APPID
  5
C723
330
9
100
AcDbSymbolTableRecord
100
AcDbRegAppTableRecord
  2
GENIUS_GENTRA_14
 70
     0
  0
APPID
  5
D8E8
330
9
100
AcDbSymbolTableRecord
100
AcDbRegAppTableRecord
  2
GENIUS_GENOBJ-N-FIL_13
 70
     0
  0
APPID
  5
11419
330
9
100
AcDbSymbolTableRecord
100
AcDbRegAppTableRecord
  2
AD_DRAW
 70
     0
  0
APPID
  5
11437
330
9
100
AcDbSymbolTableRecord
100
AcDbRegAppTableRecord
  2
DESIGNERASSEMBLIES
 70
     0
  0
APPID
  5
1143E
330
9
100
AcDbSymbolTableRecord
100
AcDbRegAppTableRecord
  2
ACADM_DIM_EDIT
 70
     0
  0
APPID
  5
1143F
330
9
100
AcDbSymbolTableRecord
100
AcDbRegAppTableRecord
  2
AMDT_DM_ADJ
 70
     0
  0
APPID
  5
11489
330
9
100
AcDbSymbolTableRecord
100
AcDbRegAppTableRecord
  2
ACAD_DSTYLE_DIMARC_LENGTH_SYMBOL
 70
     0
  0
APPID
  5
1148A
330
9
100
AcDbSymbolTableRecord
100
AcDbRegAppTableRecord
  2
ACAD_DSTYLE_DIMJOGGED_JOGANGLE_SYMBOL
 70
     0
  0
APPID
  5
114F3
330
9
100
AcDbSymbolTableRecord
100
AcDbRegAppTableRecord
  2
ACAD_PSEXT
 70
     0
  0
APPID
  5
114F4
330
9
100
AcDbSymbolTableRecord
100
AcDbRegAppTableRecord
  2
ACAD_DSTYLE_DIMTEXT_FILL
 70
     0
  0
APPID
  5
114F5
330
9
100
AcDbSymbolTableRecord
100
AcDbRegAppTableRecord
  2
ACAD_DSTYLE_DIMEXT_LENGTH
 70
     0
  0
APPID
  5
114F6
330
9
100
AcDbSymbolTableRecord
100
AcDbRegAppTableRecord
  2
ACAD_DSTYLE_DIMEXT_ENABLED
 70
     0
  0
APPID
  5
114F7
330
9
100
AcDbSymbolTableRecord
100
AcDbRegAppTableRecord
  2
ACAD_DSTYLE_DIM_LINETYPE
 70
     0
  0
APPID
  5
114F8
330
9
100
AcDbSymbolTableRecord
100
AcDbRegAppTableRecord
  2
ACAD_DSTYLE_DIM_EXT1_LINETYPE
 70
     0
  0
APPID
  5
114F9
330
9
100
AcDbSymbolTableRecord
100
AcDbRegAppTableRecord
  2
ACAD_DSTYLE_DIM_EXT2_LINETYPE
 70
     0
  0
APPID
  5
11A1B
330
9
100
AcDbSymbolTableRecord
100
AcDbRegAppTableRecord
  2
AcAecLayerStandard
 70
     0
  0
APPID
  5
11A38
330
9
100
AcDbSymbolTableRecord
100
AcDbRegAppTableRecord
  2
GENIUS_GENOBJ-N-ZOO_13
 70
     0
  0
APPID
  5
11A39
330
9
100
AcDbSymbolTableRecord
100
AcDbRegAppTableRecord
  2
GENIUS_GENZOO_17
 70
     0
  0
APPID
  5
11D95
330
9
100
AcDbSymbolTableRecord
100
AcDbRegAppTableRecord
  2
AcDbAttr
 70
     0
  0
APPID
  5
12115
330
9
100
AcDbSymbolTableRecord
100
AcDbRegAppTableRecord
  2
GENIUS_GENCEN_19
 70
     0
  0
APPID
  5
13824
330
9
100
AcDbSymbolTableRecord
100
AcDbRegAppTableRecord
  2
ACAD_EXEMPT_FROM_CAD_STANDARDS
 70
     0
  0
APPID
  5
13E09
330
9
100
AcDbSymbolTableRecord
100
AcDbRegAppTableRecord
  2
GENIUS_GENOBJ-N-DIM_13
 70
     0
  0
APPID
  5
13E0A
330
9
100
AcDbSymbolTableRecord
100
AcDbRegAppTableRecord
  2
GENIUS_GENDIM_13
 70
     0
  0
APPID
  5
1426D
330
9
100
AcDbSymbolTableRecord
100
AcDbRegAppTableRecord
  2
AMG_2DHIDE
 70
     0
  0
APPID
  5
1426E
330
9
100
AcDbSymbolTableRecord
100
AcDbRegAppTableRecord
  2
AMG_2DSTRUCT_BTR
 70
     0
  0
APPID
  5
1426F
330
9
100
AcDbSymbolTableRecord
100
AcDbRegAppTableRecord
  2
GEVID1170894883
 70
     0
  0
APPID
  5
14270
330
9
100
AcDbSymbolTableRecord
100
AcDbRegAppTableRecord
  2
GEVDC
 70
     0
  0
APPID
  5
14271
330
9
100
AcDbSymbolTableRecord
100
AcDbRegAppTableRecord
  2
GENIUS_GENOBJ-F-SCPASSM_13
 70
     0
  0
APPID
  5
14272
330
9
100
AcDbSymbolTableRecord
100
AcDbRegAppTableRecord
  2
ACADM_2DVIEW_IGN_NOTIFY
 70
     0
  0
APPID
  5
14CF7
330
9
100
AcDbSymbolTableRecord
100
AcDbRegAppTableRecord
  2
ACAD_MLEADERVER
 70
     0
  0
APPID
  5
151CB
330
9
100
AcDbSymbolTableRecord
100
AcDbRegAppTableRecord
  2
ACAD_DSTYLE_DIMINSPECT
 70
     0
  0
APPID
  5
161D7
330
9
100
AcDbSymbolTableRecord
100
AcDbRegAppTableRecord
  2
GENIUS_AMGTXT_16
 70
     0
  0
APPID
  5
1762D
330
9
100
AcDbSymbolTableRecord
100
AcDbRegAppTableRecord
  2
ACAD_NAV_VCDISPLAY
 70
     0
  0
ENDTAB
  0
TABLE
  2
DIMSTYLE
  5
A
330
0
100
AcDbSymbolTable
 70
    31
100
AcDbDimStyleTable
 71
     2
340
616
340
148
  0
DIMSTYLE
105
148
330
A
100
AcDbSymbolTableRecord
100
AcDbDimStyleTableRecord
  2
kuroda_sunpo
 70
     0
  4
"
 41
2.5
 42
1.0
 43
8.0
 44
1.0
 47
0.1
 48
0.1
 73
     0
 74
     0
 77
     3
 78
     8
 79
     2
140
3.2
141
0.0
143
0.0393701
146
0.71
147
1.5
172
     1
176
     7
177
     7
178
     7
179
     2
271
     3
272
     3
275
     1
283
     0
340
11
341
44D
342
44D
371
    -1
372
    -1
  0
DIMSTYLE
105
14A
330
A
100
AcDbSymbolTableRecord
100
AcDbDimStyleTableRecord
  2
kuroda_sunpo$3
 70
     0
  4
"
 41
2.5
 42
1.0
 43
8.0
 44
1.0
 47
0.1
 48
0.1
 73
     0
 77
     3
 78
     8
 79
     2
140
3.2
141
0.0
143
0.0393701
146
0.71
147
1.5
176
     7
177
     7
178
     7
179
     2
271
     3
272
     3
275
     1
283
     0
288
     1
289
     0
340
11
341
44D
342
44D
371
    -1
372
    -1
  0
DIMSTYLE
105
14B
330
A
100
AcDbSymbolTableRecord
100
AcDbDimStyleTableRecord
  2
kuroda_sunpo$4
 70
     0
  4
"
 41
2.5
 42
1.0
 43
8.0
 44
1.0
 47
0.1
 48
0.1
 73
     0
 77
     3
 78
     8
 79
     2
140
3.2
141
0.0
143
0.0393701
146
0.71
147
1.5
176
     7
177
     7
178
     7
179
     2
271
     3
272
     3
275
     1
283
     0
288
     1
289
     0
340
11
341
44D
342
44D
371
    -1
372
    -1
  0
DIMSTYLE
105
14C
330
A
100
AcDbSymbolTableRecord
100
AcDbDimStyleTableRecord
  2
kuroda_sunpo$6
 70
     0
  4
"
 41
2.5
 42
1.0
 43
8.0
 44
1.0
 47
0.1
 48
0.1
 73
     0
 74
     0
 78
     8
 79
     2
140
3.2
141
0.0
143
0.0393701
146
0.71
147
1.5
172
     1
176
     7
177
     7
178
     7
179
     2
271
     3
272
     3
275
     1
283
     0
340
11
341
44D
342
44D
371
    -1
372
    -1
  0
DIMSTYLE
105
14D
330
A
100
AcDbSymbolTableRecord
100
AcDbDimStyleTableRecord
  2
kuroda_sunpo$SF
 70
     0
  4
"
 41
2.5
 42
1.0
 43
8.0
 44
1.0
 47
0.1
 48
0.1
 73
     0
 74
     0
 75
     1
 76
     1
 77
     3
 78
     8
 79
     2
140
5.0
141
0.0
143
0.0393701
146
0.71
147
1.5
172
     1
176
   256
177
   256
178
     7
179
     2
271
     3
272
     3
275
     1
283
     0
340
11
341
6D
342
6D
371
    -1
372
    -1
  0
DIMSTYLE
105
14E
330
A
100
AcDbSymbolTableRecord
100
AcDbDimStyleTableRecord
  2
kuroda_sunpo$SH
 70
     0
  4
"
 41
2.5
 42
1.0
 43
8.0
 44
1.0
 47
0.1
 48
0.1
 73
     0
 74
     0
 75
     1
 76
     1
 77
     3
 78
     8
 79
     2
140
5.0
141
0.0
143
0.0393701
144
2.0
146
0.71
147
1.5
172
     1
173
     1
176
   256
177
   256
178
     7
179
     2
271
     3
272
     3
275
     1
283
     0
340
11
341
6D
342
6D
343
78
371
    -1
372
    -1
  0
DIMSTYLE
105
616
330
A
100
AcDbSymbolTableRecord
100
AcDbDimStyleTableRecord
  2
JIS-KURODA
 70
     0
  4
"
 41
2.5
 42
1.0
 43
8.0
 44
1.0
 47
0.1
 48
0.1
 73
     0
 74
     0
 77
     3
 78
     8
 79
     2
140
3.2
141
0.0
143
0.0393701
146
0.71
147
1.5
172
     1
176
     7
177
     7
178
     7
179
     3
271
     3
272
     3
275
     1
283
     0
284
     8
289
     2
340
11
341
44D
342
44D
371
    -1
372
    -1
1001
ACAD_DSTYLE_DIMJOGGED_JOGANGLE_SYMBOL
1070
   384
1040
0.7853981633974483
1001
ACAD_DSTYLE_DIMARC_LENGTH_SYMBOL
1070
   379
1070
     1
1001
ACAD_DSTYLE_DIMEXT_LENGTH
1070
   378
1040
0.0
  0
DIMSTYLE
105
617
330
A
100
AcDbSymbolTableRecord
100
AcDbDimStyleTableRecord
  2
JIS-KURODA$3
 70
     0
  4
"
 41
2.5
 42
1.0
 43
8.0
 44
1.0
 47
0.1
 48
0.1
 73
     0
 74
     0
 77
     3
 78
     8
 79
     2
140
3.2
141
0.0
143
0.0393701
146
0.71
147
1.5
172
     1
176
     7
177
     7
178
     7
179
     3
271
     3
272
     3
275
     1
283
     0
284
     8
288
     1
289
     2
340
11
341
6D
342
44D
371
    -1
372
    -1
1001
ACAD_DSTYLE_DIMJOGGED_JOGANGLE_SYMBOL
1070
   384
1040
0.7853981633974483
1001
ACAD_DSTYLE_DIMARC_LENGTH_SYMBOL
1070
   379
1070
     1
  0
DIMSTYLE
105
618
330
A
100
AcDbSymbolTableRecord
100
AcDbDimStyleTableRecord
  2
JIS-KURODA$4
 70
     0
  4
"
 41
2.5
 42
1.0
 43
8.0
 44
1.0
 47
0.1
 48
0.1
 73
     0
 77
     3
 78
     8
 79
     2
140
3.2
141
0.0
143
0.0393701
146
0.71
147
1.5
173
     1
176
     7
177
     7
178
     7
179
     3
271
     3
272
     3
275
     1
283
     0
284
     8
288
     1
289
     2
340
11
341
6D
343
6D
344
44D
371
    -1
372
    -1
1001
ACAD_DSTYLE_DIMJOGGED_JOGANGLE_SYMBOL
1070
   384
1040
0.7853981633974483
1001
ACAD_DSTYLE_DIMARC_LENGTH_SYMBOL
1070
   379
1070
     1
  0
DIMSTYLE
105
619
330
A
100
AcDbSymbolTableRecord
100
AcDbDimStyleTableRecord
  2
JIS-KURODA$6
 70
     0
  4
"
 41
2.5
 42
1.0
 43
8.0
 44
1.0
 47
0.1
 48
0.1
 73
     0
 74
     0
 78
     8
 79
     2
140
3.2
141
0.0
143
0.0393701
146
0.71
147
1.5
172
     1
176
     7
177
     7
178
     7
179
     3
271
     3
272
     3
275
     1
283
     0
284
     8
289
     2
340
11
341
6D
342
6D
371
    -1
372
    -1
1001
ACAD_DSTYLE_DIMJOGGED_JOGANGLE_SYMBOL
1070
   384
1040
0.7853981633974483
1001
ACAD_DSTYLE_DIMARC_LENGTH_SYMBOL
1070
   379
1070
     1
  0
DIMSTYLE
105
61A
330
A
100
AcDbSymbolTableRecord
100
AcDbDimStyleTableRecord
  2
JIS-KURODA$7
 70
     0
  4
"
 41
2.5
 42
1.0
 43
8.0
 44
1.0
 47
0.1
 48
0.1
 73
     0
 74
     0
 77
     3
 78
     8
 79
     2
140
4.000000000000003
141
0.0
143
0.0393701
146
0.71
147
1.5
172
     1
176
     7
177
     7
178
     7
179
     3
271
     3
272
     3
275
     1
283
     0
284
     8
289
     2
340
11
341
44D
342
6D
371
    -1
372
    -1
1001
ACAD_DSTYLE_DIMJOGGED_JOGANGLE_SYMBOL
1070
   384
1040
0.7853981633974483
1001
ACAD_DSTYLE_DIMARC_LENGTH_SYMBOL
1070
   379
1070
     1
  0
DIMSTYLE
105
61B
330
A
100
AcDbSymbolTableRecord
100
AcDbDimStyleTableRecord
  2
JIS-KURODA$SF
 70
     0
  4
"
 41
2.5
 42
1.0
 43
10.0
 44
1.0
 47
0.1
 48
0.1
 73
     0
 74
     0
 75
     1
 76
     1
 77
     3
 78
     8
 79
     2
140
3.5
141
0.0
143
0.0393701
146
0.71
147
1.5
172
     1
176
   256
177
   256
178
     7
271
     2
272
     3
274
     4
283
     0
284
     8
340
11
341
6D
342
6D
343
6D
344
6D
371
    -1
372
    -1
1001
ACAD_DSTYLE_DIMJOGGED_JOGANGLE_SYMBOL
1070
   384
1040
0.7853981633974483
1001
ACAD_DSTYLE_DIMARC_LENGTH_SYMBOL
1070
   379
1070
     1
  0
DIMSTYLE
105
61C
330
A
100
AcDbSymbolTableRecord
100
AcDbDimStyleTableRecord
  2
JIS-KURODA$SH
 70
     0
  4
"
 41
2.5
 42
1.0
 43
10.0
 44
1.0
 47
0.1
 48
0.1
 73
     0
 74
     0
 75
     1
 76
     1
 77
     3
 78
     8
 79
     2
140
3.5
141
0.0
143
0.0393701
144
2.0
146
0.71
147
1.5
172
     1
173
     1
176
   256
177
   256
178
     7
271
     2
272
     3
274
     4
283
     0
284
     8
340
11
341
6D
342
6D
343
78
344
6D
371
    -1
372
    -1
1001
ACAD_DSTYLE_DIMJOGGED_JOGANGLE_SYMBOL
1070
   384
1040
0.7853981633974483
1001
ACAD_DSTYLE_DIMARC_LENGTH_SYMBOL
1070
   379
1070
     1
  0
DIMSTYLE
105
80D
330
A
100
AcDbSymbolTableRecord
100
AcDbDimStyleTableRecord
  2
STANDARD
 70
     0
 41
3.0
 42
1.0
 43
7.0
 44
2.0
 73
     0
 74
     0
 77
     1
140
2.799999999999999
141
0.0
143
0.0394
147
0.7
171
     4
172
     1
173
     1
176
     7
177
     7
178
     7
271
     3
272
     3
273
     8
274
     4
289
     0
340
80B
341
6D
343
6D
344
6D
  0
DIMSTYLE
105
B784
330
A
100
AcDbSymbolTableRecord
100
AcDbDimStyleTableRecord
  2
AM_ANSI
 70
     0
  4
mm
 41
0.1
 42
0.05
 43
0.5
 44
0.1
 47
0.1
 48
0.1
 78
     7
 79
     2
140
0.12
141
0.0
146
0.71
147
0.06
176
   256
177
   256
178
     2
274
     4
340
11
371
    -1
372
    -1
1001
ACAD_DSTYLE_DIMJOGGED_JOGANGLE_SYMBOL
1070
   384
1040
0.7853981633974483
1001
ACAD_DSTYLE_DIMARC_LENGTH_SYMBOL
1070
   379
1070
     1
  0
DIMSTYLE
105
B785
330
A
100
AcDbSymbolTableRecord
100
AcDbDimStyleTableRecord
  2
AM_ANSI$3
 70
     0
  4
mm
 41
0.1
 42
0.05
 43
0.5
 44
0.1
 47
0.1
 48
0.1
 78
     7
 79
     2
140
0.12
141
0.0
146
0.71
147
0.06
176
   256
177
   256
178
     2
274
     4
288
     1
289
     0
340
11
371
    -1
372
    -1
1001
ACAD_DSTYLE_DIMJOGGED_JOGANGLE_SYMBOL
1070
   384
1040
0.7853981633974483
1001
ACAD_DSTYLE_DIMARC_LENGTH_SYMBOL
1070
   379
1070
     1
  0
DIMSTYLE
105
B786
330
A
100
AcDbSymbolTableRecord
100
AcDbDimStyleTableRecord
  2
AM_ANSI$4
 70
     0
  4
mm
 41
0.1
 42
0.05
 43
0.5
 44
0.1
 47
0.1
 48
0.1
 78
     7
 79
     2
140
0.12
141
0.0
146
0.71
147
0.06
176
   256
177
   256
178
     2
274
     4
288
     1
289
     0
340
11
371
    -1
372
    -1
1001
ACAD_DSTYLE_DIMJOGGED_JOGANGLE_SYMBOL
1070
   384
1040
0.7853981633974483
1001
ACAD_DSTYLE_DIMARC_LENGTH_SYMBOL
1070
   379
1070
     1
  0
DIMSTYLE
105
B787
330
A
100
AcDbSymbolTableRecord
100
AcDbDimStyleTableRecord
  2
AM_ANSI$7
 70
     0
  4
mm
 41
0.1
 42
0.05
 43
0.5
 44
0.1
 47
0.1
 48
0.1
 78
     7
 79
     2
140
0.24
141
0.0
146
0.71
147
0.06
176
   256
177
   256
178
     2
274
     4
340
11
371
    -1
372
    -1
1001
ACAD_DSTYLE_DIMJOGGED_JOGANGLE_SYMBOL
1070
   384
1040
0.7853981633974483
1001
ACAD_DSTYLE_DIMARC_LENGTH_SYMBOL
1070
   379
1070
     1
  0
DIMSTYLE
105
B788
330
A
100
AcDbSymbolTableRecord
100
AcDbDimStyleTableRecord
  2
AM_ANSI$SF
 70
     0
  4
mm
 41
0.1
 42
0.05
 43
0.5
 44
0.1
 47
0.1
 48
0.1
 75
     1
 76
     1
 78
     7
 79
     2
140
0.12
141
0.0
146
0.71
147
0.06
176
   256
177
   256
178
     2
274
     4
340
11
371
    -1
372
    -1
1001
ACAD_DSTYLE_DIMJOGGED_JOGANGLE_SYMBOL
1070
   384
1040
0.7853981633974483
1001
ACAD_DSTYLE_DIMARC_LENGTH_SYMBOL
1070
   379
1070
     1
  0
DIMSTYLE
105
B789
330
A
100
AcDbSymbolTableRecord
100
AcDbDimStyleTableRecord
  2
AM_ANSI$SH
 70
     0
  4
mm
 41
0.1
 42
0.05
 43
0.5
 44
0.1
 47
0.1
 48
0.1
 75
     1
 76
     1
 78
     7
 79
     2
140
0.12
141
0.0
146
0.71
147
0.06
173
     1
176
   256
177
   256
178
     2
274
     4
340
11
343
78
371
    -1
372
    -1
1001
ACAD_DSTYLE_DIMJOGGED_JOGANGLE_SYMBOL
1070
   384
1040
0.7853981633974483
1001
ACAD_DSTYLE_DIMARC_LENGTH_SYMBOL
1070
   379
1070
     1
  0
DIMSTYLE
105
C47D
330
A
100
AcDbSymbolTableRecord
100
AcDbDimStyleTableRecord
  2
JIS-KURODA$2
 70
     0
  4
"
 41
2.5
 42
1.0
 43
8.0
 44
1.0
 47
0.1
 48
0.1
 73
     0
 74
     0
 77
     3
 78
     8
 79
     2
140
3.2
141
0.0
143
0.0393701
146
0.71
147
1.5
172
     1
176
     7
177
     7
178
     7
179
     3
271
     3
272
     3
275
     1
283
     0
284
     8
289
     2
340
11
341
44D
342
44D
371
    -1
372
    -1
1001
ACAD_DSTYLE_DIMJOGGED_JOGANGLE_SYMBOL
1070
   384
1040
0.7853981633974483
1001
ACAD_DSTYLE_DIMARC_LENGTH_SYMBOL
1070
   379
1070
     1
  0
DIMSTYLE
105
C4F0
330
A
100
AcDbSymbolTableRecord
100
AcDbDimStyleTableRecord
  2
AM_ISO
 70
     0
  4
"
 41
2.5
 42
1.0
 43
10.0
 44
1.0
 47
0.1
 48
0.1
 73
     0
 74
     0
 77
     1
 78
     8
 79
     2
140
3.5
141
0.0
143
0.0393701
146
0.71
147
1.5
172
     1
176
   256
177
   256
178
     2
271
     2
272
     3
274
     4
283
     0
284
     8
340
11
371
    -1
372
    -1
1001
ACAD_DSTYLE_DIMJOGGED_JOGANGLE_SYMBOL
1070
   384
1040
0.7853981633974483
1001
ACAD_DSTYLE_DIMARC_LENGTH_SYMBOL
1070
   379
1070
     1
  0
DIMSTYLE
105
C4F1
330
A
100
AcDbSymbolTableRecord
100
AcDbDimStyleTableRecord
  2
AM_ISO$3
 70
     0
  4
"
 41
2.5
 42
1.0
 43
10.0
 44
1.0
 47
0.1
 48
0.1
 73
     0
 77
     1
 78
     8
 79
     2
140
3.5
141
0.0
143
0.0393701
146
0.71
147
1.5
176
   256
177
   256
178
     2
271
     2
272
     3
274
     4
283
     0
284
     8
288
     1
289
     0
340
11
371
    -1
372
    -1
1001
ACAD_DSTYLE_DIMJOGGED_JOGANGLE_SYMBOL
1070
   384
1040
0.7853981633974483
1001
ACAD_DSTYLE_DIMARC_LENGTH_SYMBOL
1070
   379
1070
     1
  0
DIMSTYLE
105
C4F2
330
A
100
AcDbSymbolTableRecord
100
AcDbDimStyleTableRecord
  2
AM_ISO$4
 70
     0
  4
"
 41
2.5
 42
1.0
 43
10.0
 44
1.0
 47
0.1
 48
0.1
 73
     0
 77
     1
 78
     8
 79
     2
140
3.5
141
0.0
143
0.0393701
146
0.71
147
1.5
176
   256
177
   256
178
     2
271
     2
272
     3
274
     4
283
     0
284
     8
288
     1
289
     0
340
11
371
    -1
372
    -1
1001
ACAD_DSTYLE_DIMJOGGED_JOGANGLE_SYMBOL
1070
   384
1040
0.7853981633974483
1001
ACAD_DSTYLE_DIMARC_LENGTH_SYMBOL
1070
   379
1070
     1
  0
DIMSTYLE
105
C4F3
330
A
100
AcDbSymbolTableRecord
100
AcDbDimStyleTableRecord
  2
AM_ISO$6
 70
     0
  4
"
 41
2.5
 42
1.0
 43
10.0
 44
1.0
 47
0.1
 48
0.1
 73
     0
 74
     0
 78
     8
 79
     2
140
3.5
141
0.0
143
0.0393701
146
0.71
147
1.5
172
     1
176
   256
177
   256
178
     2
271
     2
272
     3
274
     4
283
     0
284
     8
340
11
371
    -1
372
    -1
1001
ACAD_DSTYLE_DIMJOGGED_JOGANGLE_SYMBOL
1070
   384
1040
0.7853981633974483
1001
ACAD_DSTYLE_DIMARC_LENGTH_SYMBOL
1070
   379
1070
     1
  0
DIMSTYLE
105
C4F4
330
A
100
AcDbSymbolTableRecord
100
AcDbDimStyleTableRecord
  2
AM_ISO$7
 70
     0
  4
"
 41
2.5
 42
1.0
 43
10.0
 44
1.0
 47
0.1
 48
0.1
 73
     0
 74
     0
 77
     1
 78
     8
 79
     2
140
5.0
141
0.0
143
0.0393701
146
0.71
147
1.5
172
     1
176
   256
177
   256
178
     2
271
     2
272
     3
274
     4
283
     0
284
     8
340
11
371
    -1
372
    -1
1001
ACAD_DSTYLE_DIMJOGGED_JOGANGLE_SYMBOL
1070
   384
1040
0.7853981633974483
1001
ACAD_DSTYLE_DIMARC_LENGTH_SYMBOL
1070
   379
1070
     1
  0
DIMSTYLE
105
C4F5
330
A
100
AcDbSymbolTableRecord
100
AcDbDimStyleTableRecord
  2
AM_ISO$SF
 70
     0
  4
"
 41
2.5
 42
1.0
 43
10.0
 44
1.0
 47
0.1
 48
0.1
 73
     0
 74
     0
 75
     1
 76
     1
 77
     1
 78
     8
 79
     2
140
3.5
141
0.0
143
0.0393701
146
0.71
147
1.5
172
     1
176
   256
177
   256
178
     2
271
     2
272
     3
274
     4
283
     0
284
     8
340
11
371
    -1
372
    -1
1001
ACAD_DSTYLE_DIMJOGGED_JOGANGLE_SYMBOL
1070
   384
1040
0.7853981633974483
1001
ACAD_DSTYLE_DIMARC_LENGTH_SYMBOL
1070
   379
1070
     1
  0
DIMSTYLE
105
C4F6
330
A
100
AcDbSymbolTableRecord
100
AcDbDimStyleTableRecord
  2
AM_ISO$SH
 70
     0
  4
"
 41
2.5
 42
1.0
 43
10.0
 44
1.0
 47
0.1
 48
0.1
 73
     0
 74
     0
 75
     1
 76
     1
 77
     1
 78
     8
 79
     2
140
3.5
141
0.0
143
0.0393701
144
2.0
146
0.71
147
1.5
172
     1
173
     1
176
   256
177
   256
178
     2
271
     2
272
     3
274
     4
283
     0
284
     8
340
11
343
78
371
    -1
372
    -1
1001
ACAD_DSTYLE_DIMJOGGED_JOGANGLE_SYMBOL
1070
   384
1040
0.7853981633974483
1001
ACAD_DSTYLE_DIMARC_LENGTH_SYMBOL
1070
   379
1070
     1
  0
DIMSTYLE
105
11904
102
{ACAD_REACTORS
330
16B20
102
}
330
A
100
AcDbSymbolTableRecord
100
AcDbDimStyleTableRecord
  2
JIS-KURODA$0
 70
     0
  4
"
 41
2.5
 42
1.0
 43
8.0
 44
1.0
 47
0.1
 48
0.1
 73
     0
 74
     0
 77
     3
 78
     8
 79
     2
140
3.2
141
0.0
143
0.0393701
146
0.71
147
1.5
172
     1
176
     7
177
     7
178
     7
179
     3
271
     3
272
     3
275
     1
283
     0
284
     8
289
     2
340
11
341
44D
342
44D
371
    -1
372
    -1
1001
ACAD_DSTYLE_DIMJOGGED_JOGANGLE_SYMBOL
1070
   384
1040
0.7853981633974483
1001
ACAD_DSTYLE_DIMARC_LENGTH_SYMBOL
1070
   379
1070
     1
1001
ACAD_DSTYLE_DIMEXT_LENGTH
1070
   378
1040
0.0
  0
DIMSTYLE
105
1447A
330
A
100
AcDbSymbolTableRecord
100
AcDbDimStyleTableRecord
  2
AM_JIS
 70
     0
  4
"
 41
2.5
 42
1.0
 43
10.0
 44
1.0
 47
0.1
 48
0.1
 73
     0
 74
     0
 77
     3
 78
     8
 79
     2
140
5.0
141
0.0
143
0.0393701
146
0.71
147
1.5
172
     1
176
   256
177
   256
178
     7
179
     2
271
     3
272
     3
275
     1
283
     0
340
11
341
6D
342
6D
371
    -1
372
    -1
  0
DIMSTYLE
105
1447B
330
A
100
AcDbSymbolTableRecord
100
AcDbDimStyleTableRecord
  2
JIS-KURODAD10P2
 70
     0
  4
"
 41
2.5
 42
1.0
 43
10.0
 44
1.0
 47
0.1
 48
0.1000000001
 73
     0
 74
     0
 77
     3
 78
     8
 79
     2
140
3.2
141
0.0
143
0.0393701
144
0.2
146
0.71
147
1.5
172
     1
174
     1
176
     7
177
     7
178
     7
271
     2
272
     2
283
     0
284
     8
340
11
341
44D
342
44D
371
    -1
372
    -1
  0
ENDTAB
  0
TABLE
  2
BLOCK_RECORD
  5
1
330
0
100
AcDbSymbolTable
 70
    18
  0
BLOCK_RECORD
  5
1F
102
{ACAD_XDICTIONARY
360
218
102
}
330
1
100
AcDbSymbolTableRecord
100
AcDbBlockTableRecord
  2
*Model_Space
340
22
  0
BLOCK_RECORD
  5
23
330
1
100
AcDbSymbolTableRecord
100
AcDbBlockTableRecord
  2
*Paper_Space
340
26
  0
BLOCK_RECORD
  5
1B
330
1
100
AcDbSymbolTableRecord
100
AcDbBlockTableRecord
  2
*Paper_Space0
340
1E
  0
BLOCK_RECORD
  5
6D
330
1
100
AcDbSymbolTableRecord
100
AcDbBlockTableRecord
  2
_Open30
340
0
  0
BLOCK_RECORD
  5
78
330
1
100
AcDbSymbolTableRecord
100
AcDbBlockTableRecord
  2
GENAXEH
340
0
  0
BLOCK_RECORD
  5
44D
330
1
100
AcDbSymbolTableRecord
100
AcDbBlockTableRecord
  2
_Open
340
0
102
{BLKREFS
331
17633
331
17634
102
}
  0
BLOCK_RECORD
  5
14D72
330
1
100
AcDbSymbolTableRecord
100
AcDbBlockTableRecord
  2
*U5
340
0
102
{BLKREFS
331
14FC3
102
}
  0
BLOCK_RECORD
  5
14D76
330
1
100
AcDbSymbolTableRecord
100
AcDbBlockTableRecord
  2
*U6
340
0
102
{BLKREFS
331
14FC4
102
}
  0
BLOCK_RECORD
  5
14D7A
330
1
100
AcDbSymbolTableRecord
100
AcDbBlockTableRecord
  2
*U7
340
0
102
{BLKREFS
331
14FC5
102
}
  0
BLOCK_RECORD
  5
14D7E
330
1
100
AcDbSymbolTableRecord
100
AcDbBlockTableRecord
  2
*U8
340
0
102
{BLKREFS
331
14FC6
102
}
  0
BLOCK_RECORD
  5
14D82
330
1
100
AcDbSymbolTableRecord
100
AcDbBlockTableRecord
  2
*U9
340
0
102
{BLKREFS
331
14FC7
102
}
  0
BLOCK_RECORD
  5
14D86
330
1
100
AcDbSymbolTableRecord
100
AcDbBlockTableRecord
  2
*U10
340
0
102
{BLKREFS
331
14FCA
102
}
  0
BLOCK_RECORD
  5
14D8A
330
1
100
AcDbSymbolTableRecord
100
AcDbBlockTableRecord
  2
*U11
340
0
102
{BLKREFS
331
14FCD
102
}
  0
BLOCK_RECORD
  5
14DAB
330
1
100
AcDbSymbolTableRecord
100
AcDbBlockTableRecord
  2
*U12
340
0
102
{BLKREFS
331
14FCF
102
}
  0
BLOCK_RECORD
  5
16B21
330
1
100
AcDbSymbolTableRecord
100
AcDbBlockTableRecord
  2
*D13
340
0
  0
BLOCK_RECORD
  5
175F4
330
1
100
AcDbSymbolTableRecord
100
AcDbBlockTableRecord
  2
_ACMOPEN15
340
0
  0
BLOCK_RECORD
  5
17609
330
1
100
AcDbSymbolTableRecord
100
AcDbBlockTableRecord
  2
_ACMFILLEDHALF
340
0
  0
BLOCK_RECORD
  5
17614
330
1
100
AcDbSymbolTableRecord
100
AcDbBlockTableRecord
  2
_ACMFILLED
340
0
  0
BLOCK_RECORD
  5
1761E
330
1
100
AcDbSymbolTableRecord
100
AcDbBlockTableRecord
  2
_ACMFILLED15
340
0
  0
ENDTAB
  0
ENDSEC
  0
SECTION
  2
BLOCKS
  0
BLOCK
  5
20
330
1F
100
AcDbEntity
  8
0
100
AcDbBlockBegin
  2
*Model_Space
 70
     0
 10
0.0
 20
0.0
 30
0.0
  3
*Model_Space
  1

  0
ENDBLK
  5
21
330
1F
100
AcDbEntity
  8
0
100
AcDbBlockEnd
  0
BLOCK
  5
24
330
23
100
AcDbEntity
 67
     1
  8
0
100
AcDbBlockBegin
  2
*Paper_Space
 70
     0
 10
0.0
 20
0.0
 30
0.0
  3
*Paper_Space
  1

  0
ENDBLK
  5
25
330
23
100
AcDbEntity
 67
     1
  8
0
100
AcDbBlockEnd
  0
BLOCK
  5
1C
330
1B
100
AcDbEntity
 67
     1
  8
0
100
AcDbBlockBegin
  2
*Paper_Space0
 70
     0
 10
0.0
 20
0.0
 30
0.0
  3
*Paper_Space0
  1

  0
VIEWPORT
  5
D3CE
330
1B
100
AcDbEntity
 67
     1
  8
AM_VIEWS
100
AcDbViewport
 10
209.2062500119209
 20
147.7062500119209
 30
0.0
 40
468.2808394160583
 41
314.226
 68
     0
 69
     0
 12
209.2062500119209
 22
147.7062500119209
 13
0.0
 23
0.0
 14
10.0
 24
10.0
 15
10.0
 25
10.0
 16
0.0
 26
0.0
 36
1.0
 17
0.0
 27
0.0
 37
0.0
 42
50.0
 43
0.0
 44
0.0
 45
314.226
 50
0.0
 51
0.0
 72
   100
 90
    32800
  1

281
     0
 71
     1
 74
     0
110
0.0
120
0.0
130
0.0
111
1.0
121
0.0
131
0.0
112
0.0
122
1.0
132
0.0
 79
     0
146
0.0
170
     0
  0
ENDBLK
  5
1D
330
1B
100
AcDbEntity
 67
     1
  8
0
100
AcDbBlockEnd
  0
BLOCK
  5
142D2
330
6D
100
AcDbEntity
  8
0
100
AcDbBlockBegin
  2
_Open30
 70
     0
 10
0.0
 20
0.0
 30
0.0
  3
_Open30
  1

  0
LINE
  5
142D3
330
6D
100
AcDbEntity
  8
0
 62
     0
370
    -2
100
AcDbLine
 10
-1.0
 20
0.26794919
 30
0.0
 11
0.0
 21
0.0
 31
0.0
  0
LINE
  5
142D4
330
6D
100
AcDbEntity
  8
0
 62
     0
370
    -2
100
AcDbLine
 10
0.0
 20
0.0
 30
0.0
 11
-1.0
 21
-0.26794919
 31
0.0
  0
LINE
  5
142D5
330
6D
100
AcDbEntity
  8
0
 62
     0
370
    -2
100
AcDbLine
 10
0.0
 20
0.0
 30
0.0
 11
-1.0
 21
0.0
 31
0.0
  0
ENDBLK
  5
142D6
330
6D
100
AcDbEntity
  8
0
100
AcDbBlockEnd
  0
BLOCK
  5
1428C
330
78
100
AcDbEntity
  8
0
100
AcDbBlockBegin
  2
GENAXEH
 70
     0
 10
0.0
 20
0.0
 30
0.0
  3
GENAXEH
  1

  0
LINE
  5
1428D
330
78
100
AcDbEntity
  8
0
100
AcDbLine
 10
-1.0
 20
0.0
 30
0.0
 11
1.0
 21
0.0
 31
0.0
  0
ENDBLK
  5
1428E
330
78
100
AcDbEntity
  8
0
100
AcDbBlockEnd
  0
BLOCK
  5
142C7
330
44D
100
AcDbEntity
  8
0
100
AcDbBlockBegin
  2
_Open
 70
     0
 10
0.0
 20
0.0
 30
0.0
  3
_Open
  1

  0
LINE
  5
142C8
330
44D
100
AcDbEntity
  8
outline
 62
     0
370
    -2
100
AcDbLine
 10
-1.0
 20
0.1666666666666666
 30
0.0
 11
0.0
 21
0.0
 31
0.0
  0
LINE
  5
142CA
330
44D
100
AcDbEntity
  8
outline
 62
     0
370
    -2
100
AcDbLine
 10
-1.0
 20
-0.1666666666666666
 30
0.0
 11
0.0
 21
0.0
 31
0.0
  0
LINE
  5
142CB
330
44D
100
AcDbEntity
  8
outline
 62
     0
370
    -2
100
AcDbLine
 10
0.0
 20
0.0
 30
0.0
 11
-1.0
 21
0.0
 31
0.0
  0
ENDBLK
  5
142CC
330
44D
100
AcDbEntity
  8
0
100
AcDbBlockEnd
  0
BLOCK
  5
14D73
330
14D72
100
AcDbEntity
  8
0
100
AcDbBlockBegin
  2
*U5
 70
     1
 10
0.0
 20
0.0
 30
0.0
  3
*U5
  1

  0
TEXT
  5
14D74
330
14D72
100
AcDbEntity
  8
PV0001_1
 62
     7
100
AcDbText
 10
1022.638811958704
 20
395.8715475997809
 30
0.0
 40
2.0
  1
FILE　NAME
 41
0.61
100
AcDbText
  0
ENDBLK
  5
14D75
330
14D72
100
AcDbEntity
  8
0
100
AcDbBlockEnd
  0
BLOCK
  5
14D77
330
14D76
100
AcDbEntity
  8
0
100
AcDbBlockBegin
  2
*U6
 70
     1
 10
0.0
 20
0.0
 30
0.0
  3
*U6
  1

  0
TEXT
  5
14D78
330
14D76
100
AcDbEntity
  8
PV0001_1
 62
     7
100
AcDbText
 10
937.7802507026579
 20
395.8715475997809
 30
0.0
 40
2.0
  1
SERIES
 41
0.61
100
AcDbText
  0
ENDBLK
  5
14D79
330
14D76
100
AcDbEntity
  8
0
100
AcDbBlockEnd
  0
BLOCK
  5
14D7B
330
14D7A
100
AcDbEntity
  8
0
100
AcDbBlockBegin
  2
*U7
 70
     1
 10
0.0
 20
0.0
 30
0.0
  3
*U7
  1

  0
TEXT
  5
14D7C
330
14D7A
100
AcDbEntity
  8
PV0001_1
 62
     7
100
AcDbText
 10
830.7302476509081
 20
580.8882101974363
 30
0.0
 40
2.0
  1
SCALE
 41
0.61
100
AcDbText
  0
ENDBLK
  5
14D7D
330
14D7A
100
AcDbEntity
  8
0
100
AcDbBlockEnd
  0
BLOCK
  5
14D7F
330
14D7E
100
AcDbEntity
  8
0
100
AcDbBlockBegin
  2
*U8
 70
     1
 10
0.0
 20
0.0
 30
0.0
  3
*U8
  1

  0
TEXT
  5
14D80
330
14D7E
100
AcDbEntity
  8
PV0001_1
 62
     7
100
AcDbText
 10
844.8907933896311
 20
578.3715537032965
 30
0.0
 40
3.2
  1
1
 41
0.61
100
AcDbText
  0
ENDBLK
  5
14D81
330
14D7E
100
AcDbEntity
  8
0
100
AcDbBlockEnd
  0
BLOCK
  5
14D83
330
14D82
100
AcDbEntity
  8
0
100
AcDbBlockBegin
  2
*U9
 70
     1
 10
0.0
 20
0.0
 30
0.0
  3
*U9
  1

  0
TEXT
  5
14D84
330
14D82
100
AcDbEntity
  8
PV0001_1
 62
     7
100
AcDbText
 10
852.8907933896311
 20
578.3715537032965
 30
0.0
 40
3.2
  1
1
 41
0.61
100
AcDbText
  0
ENDBLK
  5
14D85
330
14D82
100
AcDbEntity
  8
0
100
AcDbBlockEnd
  0
BLOCK
  5
14D87
330
14D86
100
AcDbEntity
  8
0
100
AcDbBlockBegin
  2
*U10
 70
     1
 10
0.0
 20
0.0
 30
0.0
  3
*U10
  1

  0
TEXT
  5
14D88
330
14D86
100
AcDbEntity
  8
PV0001_1
 62
     7
100
AcDbText
 10
1059.603767243333
 20
408.2673514327884
 30
0.0
 40
3.2
  1
MODEL
 41
0.61
100
AcDbText
  0
ENDBLK
  5
14D89
330
14D86
100
AcDbEntity
  8
0
100
AcDbBlockEnd
  0
BLOCK
  5
14D8B
330
14D8A
100
AcDbEntity
  8
0
100
AcDbBlockBegin
  2
*U11
 70
     1
 10
0.0
 20
0.0
 30
0.0
  3
*U11
  1

  0
SOLID
  5
14D8C
330
14D8A
100
AcDbEntity
  8
PV0001_1
  6
Continuous
 62
     2
100
AcDbTrace
 10
852.0200076786831
 20
581.7715537152174
 30
0.0
 11
851.9052026444116
 21
581.7487175740634
 31
0.0
 12
852.1348127129547
 22
581.7487175740634
 32
0.0
 13
852.1348127129547
 23
581.7487175740634
 33
0.0
  0
SOLID
  5
14D8D
330
14D8A
100
AcDbEntity
  8
PV0001_1
  6
Continuous
 62
     2
100
AcDbTrace
 10
851.9052026444116
 20
581.7487175740634
 30
0.0
 11
851.8078756358976
 21
581.6836857460819
 31
0.0
 12
852.2321397214684
 22
581.6836857460819
 32
0.0
 13
852.2321397214684
 23
581.6836857460819
 33
0.0
  0
SOLID
  5
14D8E
330
14D8A
100
AcDbEntity
  8
PV0001_1
  6
Continuous
 62
     2
100
AcDbTrace
 10
-851.9052026444116
 20
581.7487175740634
 30
0.0
 11
-852.1348127129547
 21
581.7487175740634
 31
0.0
 12
-852.2321397214684
 22
581.6836857460819
 32
0.0
 13
-852.2321397214684
 23
581.6836857460819
 33
0.0
210
0.0
220
0.0
230
-1.0
  0
SOLID
  5
14D8F
330
14D8A
100
AcDbEntity
  8
PV0001_1
  6
Continuous
 62
     2
100
AcDbTrace
 10
851.8078756358976
 20
581.6836857460819
 30
0.0
 11
851.7428438079164
 21
581.5863587375681
 31
0.0
 12
852.2971715494501
 22
581.5863587375681
 32
0.0
 13
852.2971715494501
 23
581.5863587375681
 33
0.0
  0
SOLID
  5
14D90
330
14D8A
100
AcDbEntity
  8
PV0001_1
  6
Continuous
 62
     2
100
AcDbTrace
 10
-851.8078756358976
 20
581.6836857460819
 30
0.0
 11
-852.2321397214684
 21
581.6836857460819
 31
0.0
 12
-852.2971715494501
 22
581.5863587375681
 32
0.0
 13
-852.2971715494501
 23
581.5863587375681
 33
0.0
210
0.0
220
0.0
230
-1.0
  0
SOLID
  5
14D91
330
14D8A
100
AcDbEntity
  8
PV0001_1
  6
Continuous
 62
     2
100
AcDbTrace
 10
851.7428438079164
 20
581.5863587375681
 30
0.0
 11
851.7200076667618
 21
581.4715537032965
 31
0.0
 12
852.3200076906041
 22
581.4715537032965
 32
0.0
 13
852.3200076906041
 23
581.4715537032965
 33
0.0
  0
SOLID
  5
14D92
330
14D8A
100
AcDbEntity
  8
PV0001_1
  6
Continuous
 62
     2
100
AcDbTrace
 10
-851.7428438079164
 20
581.5863587375681
 30
0.0
 11
-852.2971715494501
 21
581.5863587375681
 31
0.0
 12
-852.3200076906041
 22
581.4715537032965
 32
0.0
 13
-852.3200076906041
 23
581.4715537032965
 33
0.0
210
0.0
220
0.0
230
-1.0
  0
SOLID
  5
14D93
330
14D8A
100
AcDbEntity
  8
PV0001_1
  6
Continuous
 62
     2
100
AcDbTrace
 10
851.7200076667618
 20
581.4715537032965
 30
0.0
 11
851.7428438079164
 21
581.3567486690247
 31
0.0
 12
852.2971715494501
 22
581.3567486690247
 32
0.0
 13
852.2971715494501
 23
581.3567486690247
 33
0.0
  0
SOLID
  5
14D94
330
14D8A
100
AcDbEntity
  8
PV0001_1
  6
Continuous
 62
     2
100
AcDbTrace
 10
-851.7200076667618
 20
581.4715537032965
 30
0.0
 11
-852.3200076906041
 21
581.4715537032965
 31
0.0
 12
-852.2971715494501
 22
581.3567486690247
 32
0.0
 13
-852.2971715494501
 23
581.3567486690247
 33
0.0
210
0.0
220
0.0
230
-1.0
  0
SOLID
  5
14D95
330
14D8A
100
AcDbEntity
  8
PV0001_1
  6
Continuous
 62
     2
100
AcDbTrace
 10
851.7428438079164
 20
581.3567486690247
 30
0.0
 11
851.8078756358976
 21
581.2594216605113
 31
0.0
 12
852.2321397214684
 22
581.2594216605113
 32
0.0
 13
852.2321397214684
 23
581.2594216605113
 33
0.0
  0
SOLID
  5
14D96
330
14D8A
100
AcDbEntity
  8
PV0001_1
  6
Continuous
 62
     2
100
AcDbTrace
 10
-851.7428438079164
 20
581.3567486690247
 30
0.0
 11
-852.2971715494501
 21
581.3567486690247
 31
0.0
 12
-852.2321397214684
 22
581.2594216605113
 32
0.0
 13
-852.2321397214684
 23
581.2594216605113
 33
0.0
210
0.0
220
0.0
230
-1.0
  0
SOLID
  5
14D97
330
14D8A
100
AcDbEntity
  8
PV0001_1
  6
Continuous
 62
     2
100
AcDbTrace
 10
851.8078756358976
 20
581.2594216605113
 30
0.0
 11
851.9052026444116
 21
581.1943898325296
 31
0.0
 12
852.1348127129547
 22
581.1943898325296
 32
0.0
 13
852.1348127129547
 23
581.1943898325296
 33
0.0
  0
SOLID
  5
14D98
330
14D8A
100
AcDbEntity
  8
PV0001_1
  6
Continuous
 62
     2
100
AcDbTrace
 10
-851.8078756358976
 20
581.2594216605113
 30
0.0
 11
-852.2321397214684
 21
581.2594216605113
 31
0.0
 12
-852.1348127129547
 22
581.1943898325296
 32
0.0
 13
-852.1348127129547
 23
581.1943898325296
 33
0.0
210
0.0
220
0.0
230
-1.0
  0
SOLID
  5
14D99
330
14D8A
100
AcDbEntity
  8
PV0001_1
  6
Continuous
 62
     2
100
AcDbTrace
 10
-851.9052026444116
 20
581.1943898325296
 30
0.0
 11
-852.1348127129547
 21
581.1943898325296
 31
0.0
 12
-852.0200076786831
 22
581.1715536913756
 32
0.0
 13
-852.0200076786831
 23
581.1715536913756
 33
0.0
210
0.0
220
0.0
230
-1.0
  0
LINE
  5
14D9A
330
14D8A
100
AcDbEntity
  8
PV0001_1
  6
Continuous
 62
     2
100
AcDbLine
 10
852.0200076786831
 20
581.7715537152174
 30
0.0
 11
851.9052026444116
 21
581.7487175740634
 31
0.0
  0
LINE
  5
14D9B
330
14D8A
100
AcDbEntity
  8
PV0001_1
  6
Continuous
 62
     2
100
AcDbLine
 10
852.1348127129547
 20
581.7487175740634
 30
0.0
 11
852.0200076786831
 21
581.7715537152174
 31
0.0
  0
LINE
  5
14D9C
330
14D8A
100
AcDbEntity
  8
PV0001_1
  6
Continuous
 62
     2
100
AcDbLine
 10
851.9052026444116
 20
581.7487175740634
 30
0.0
 11
851.8078756358976
 21
581.6836857460819
 31
0.0
  0
LINE
  5
14D9D
330
14D8A
100
AcDbEntity
  8
PV0001_1
  6
Continuous
 62
     2
100
AcDbLine
 10
852.1348127129547
 20
581.7487175740634
 30
0.0
 11
852.2321397214684
 21
581.6836857460819
 31
0.0
  0
LINE
  5
14D9E
330
14D8A
100
AcDbEntity
  8
PV0001_1
  6
Continuous
 62
     2
100
AcDbLine
 10
851.8078756358976
 20
581.6836857460819
 30
0.0
 11
851.7428438079164
 21
581.5863587375681
 31
0.0
  0
LINE
  5
14D9F
330
14D8A
100
AcDbEntity
  8
PV0001_1
  6
Continuous
 62
     2
100
AcDbLine
 10
852.2321397214684
 20
581.6836857460819
 30
0.0
 11
852.2971715494501
 21
581.5863587375681
 31
0.0
  0
LINE
  5
14DA0
330
14D8A
100
AcDbEntity
  8
PV0001_1
  6
Continuous
 62
     2
100
AcDbLine
 10
851.7428438079164
 20
581.5863587375681
 30
0.0
 11
851.7200076667618
 21
581.4715537032965
 31
0.0
  0
LINE
  5
14DA1
330
14D8A
100
AcDbEntity
  8
PV0001_1
  6
Continuous
 62
     2
100
AcDbLine
 10
852.2971715494501
 20
581.5863587375681
 30
0.0
 11
852.3200076906041
 21
581.4715537032965
 31
0.0
  0
LINE
  5
14DA2
330
14D8A
100
AcDbEntity
  8
PV0001_1
  6
Continuous
 62
     2
100
AcDbLine
 10
851.7200076667618
 20
581.4715537032965
 30
0.0
 11
851.7428438079164
 21
581.3567486690247
 31
0.0
  0
LINE
  5
14DA3
330
14D8A
100
AcDbEntity
  8
PV0001_1
  6
Continuous
 62
     2
100
AcDbLine
 10
852.3200076906041
 20
581.4715537032965
 30
0.0
 11
852.2971715494501
 21
581.3567486690247
 31
0.0
  0
LINE
  5
14DA4
330
14D8A
100
AcDbEntity
  8
PV0001_1
  6
Continuous
 62
     2
100
AcDbLine
 10
851.7428438079164
 20
581.3567486690247
 30
0.0
 11
851.8078756358976
 21
581.2594216605113
 31
0.0
  0
LINE
  5
14DA5
330
14D8A
100
AcDbEntity
  8
PV0001_1
  6
Continuous
 62
     2
100
AcDbLine
 10
852.2971715494501
 20
581.3567486690247
 30
0.0
 11
852.2321397214684
 21
581.2594216605113
 31
0.0
  0
LINE
  5
14DA6
330
14D8A
100
AcDbEntity
  8
PV0001_1
  6
Continuous
 62
     2
100
AcDbLine
 10
851.8078756358976
 20
581.2594216605113
 30
0.0
 11
851.9052026444116
 21
581.1943898325296
 31
0.0
  0
LINE
  5
14DA7
330
14D8A
100
AcDbEntity
  8
PV0001_1
  6
Continuous
 62
     2
100
AcDbLine
 10
852.2321397214684
 20
581.2594216605113
 30
0.0
 11
852.1348127129547
 21
581.1943898325296
 31
0.0
  0
LINE
  5
14DA8
330
14D8A
100
AcDbEntity
  8
PV0001_1
  6
Continuous
 62
     2
100
AcDbLine
 10
852.1348127129547
 20
581.1943898325296
 30
0.0
 11
852.0200076786831
 21
581.1715536913756
 31
0.0
  0
LINE
  5
14DA9
330
14D8A
100
AcDbEntity
  8
PV0001_1
  6
Continuous
 62
     2
100
AcDbLine
 10
852.0200076786831
 20
581.1715536913756
 30
0.0
 11
851.9052026444116
 21
581.1943898325296
 31
0.0
  0
ENDBLK
  5
14DAA
330
14D8A
100
AcDbEntity
  8
0
100
AcDbBlockEnd
  0
BLOCK
  5
14DAC
330
14DAB
100
AcDbEntity
  8
0
100
AcDbBlockBegin
  2
*U12
 70
     1
 10
0.0
 20
0.0
 30
0.0
  3
*U12
  1

  0
SOLID
  5
14DAD
330
14DAB
100
AcDbEntity
  8
PV0001_1
  6
Continuous
 62
     2
100
AcDbTrace
 10
852.0200076786831
 20
578.7715537152173
 30
0.0
 11
851.9052026444116
 21
578.7487175740634
 31
0.0
 12
852.1348127129547
 22
578.7487175740634
 32
0.0
 13
852.1348127129547
 23
578.7487175740634
 33
0.0
  0
SOLID
  5
14DAE
330
14DAB
100
AcDbEntity
  8
PV0001_1
  6
Continuous
 62
     2
100
AcDbTrace
 10
851.9052026444116
 20
578.7487175740634
 30
0.0
 11
851.8078756358976
 21
578.6836857460817
 31
0.0
 12
852.2321397214684
 22
578.6836857460817
 32
0.0
 13
852.2321397214684
 23
578.6836857460817
 33
0.0
  0
SOLID
  5
14DAF
330
14DAB
100
AcDbEntity
  8
PV0001_1
  6
Continuous
 62
     2
100
AcDbTrace
 10
-851.9052026444116
 20
578.7487175740634
 30
0.0
 11
-852.1348127129547
 21
578.7487175740634
 31
0.0
 12
-852.2321397214684
 22
578.6836857460817
 32
0.0
 13
-852.2321397214684
 23
578.6836857460817
 33
0.0
210
0.0
220
0.0
230
-1.0
  0
SOLID
  5
14DB0
330
14DAB
100
AcDbEntity
  8
PV0001_1
  6
Continuous
 62
     2
100
AcDbTrace
 10
851.8078756358976
 20
578.6836857460817
 30
0.0
 11
851.7428438079164
 21
578.5863587375681
 31
0.0
 12
852.2971715494501
 22
578.5863587375681
 32
0.0
 13
852.2971715494501
 23
578.5863587375681
 33
0.0
  0
SOLID
  5
14DB1
330
14DAB
100
AcDbEntity
  8
PV0001_1
  6
Continuous
 62
     2
100
AcDbTrace
 10
-851.8078756358976
 20
578.6836857460817
 30
0.0
 11
-852.2321397214684
 21
578.6836857460817
 31
0.0
 12
-852.2971715494501
 22
578.5863587375681
 32
0.0
 13
-852.2971715494501
 23
578.5863587375681
 33
0.0
210
0.0
220
0.0
230
-1.0
  0
SOLID
  5
14DB2
330
14DAB
100
AcDbEntity
  8
PV0001_1
  6
Continuous
 62
     2
100
AcDbTrace
 10
851.7428438079164
 20
578.5863587375681
 30
0.0
 11
851.7200076667618
 21
578.4715537032965
 31
0.0
 12
852.3200076906041
 22
578.4715537032965
 32
0.0
 13
852.3200076906041
 23
578.4715537032965
 33
0.0
  0
SOLID
  5
14DB3
330
14DAB
100
AcDbEntity
  8
PV0001_1
  6
Continuous
 62
     2
100
AcDbTrace
 10
-851.7428438079164
 20
578.5863587375681
 30
0.0
 11
-852.2971715494501
 21
578.5863587375681
 31
0.0
 12
-852.3200076906041
 22
578.4715537032965
 32
0.0
 13
-852.3200076906041
 23
578.4715537032965
 33
0.0
210
0.0
220
0.0
230
-1.0
  0
SOLID
  5
14DB4
330
14DAB
100
AcDbEntity
  8
PV0001_1
  6
Continuous
 62
     2
100
AcDbTrace
 10
851.7200076667618
 20
578.4715537032965
 30
0.0
 11
851.7428438079164
 21
578.3567486690249
 31
0.0
 12
852.2971715494501
 22
578.3567486690249
 32
0.0
 13
852.2971715494501
 23
578.3567486690249
 33
0.0
  0
SOLID
  5
14DB5
330
14DAB
100
AcDbEntity
  8
PV0001_1
  6
Continuous
 62
     2
100
AcDbTrace
 10
-851.7200076667618
 20
578.4715537032965
 30
0.0
 11
-852.3200076906041
 21
578.4715537032965
 31
0.0
 12
-852.2971715494501
 22
578.3567486690249
 32
0.0
 13
-852.2971715494501
 23
578.3567486690249
 33
0.0
210
0.0
220
0.0
230
-1.0
  0
SOLID
  5
14DB6
330
14DAB
100
AcDbEntity
  8
PV0001_1
  6
Continuous
 62
     2
100
AcDbTrace
 10
851.7428438079164
 20
578.3567486690249
 30
0.0
 11
851.8078756358976
 21
578.2594216605112
 31
0.0
 12
852.2321397214684
 22
578.2594216605112
 32
0.0
 13
852.2321397214684
 23
578.2594216605112
 33
0.0
  0
SOLID
  5
14DB7
330
14DAB
100
AcDbEntity
  8
PV0001_1
  6
Continuous
 62
     2
100
AcDbTrace
 10
-851.7428438079164
 20
578.3567486690249
 30
0.0
 11
-852.2971715494501
 21
578.3567486690249
 31
0.0
 12
-852.2321397214684
 22
578.2594216605112
 32
0.0
 13
-852.2321397214684
 23
578.2594216605112
 33
0.0
210
0.0
220
0.0
230
-1.0
  0
SOLID
  5
14DB8
330
14DAB
100
AcDbEntity
  8
PV0001_1
  6
Continuous
 62
     2
100
AcDbTrace
 10
851.8078756358976
 20
578.2594216605112
 30
0.0
 11
851.9052026444116
 21
578.1943898325295
 31
0.0
 12
852.1348127129547
 22
578.1943898325295
 32
0.0
 13
852.1348127129547
 23
578.1943898325295
 33
0.0
  0
SOLID
  5
14DB9
330
14DAB
100
AcDbEntity
  8
PV0001_1
  6
Continuous
 62
     2
100
AcDbTrace
 10
-851.8078756358976
 20
578.2594216605112
 30
0.0
 11
-852.2321397214684
 21
578.2594216605112
 31
0.0
 12
-852.1348127129547
 22
578.1943898325295
 32
0.0
 13
-852.1348127129547
 23
578.1943898325295
 33
0.0
210
0.0
220
0.0
230
-1.0
  0
SOLID
  5
14DBA
330
14DAB
100
AcDbEntity
  8
PV0001_1
  6
Continuous
 62
     2
100
AcDbTrace
 10
-851.9052026444116
 20
578.1943898325295
 30
0.0
 11
-852.1348127129547
 21
578.1943898325295
 31
0.0
 12
-852.0200076786831
 22
578.1715536913756
 32
0.0
 13
-852.0200076786831
 23
578.1715536913756
 33
0.0
210
0.0
220
0.0
230
-1.0
  0
LINE
  5
14DBB
330
14DAB
100
AcDbEntity
  8
PV0001_1
  6
Continuous
 62
     2
100
AcDbLine
 10
852.0200076786831
 20
578.7715537152173
 30
0.0
 11
851.9052026444116
 21
578.7487175740634
 31
0.0
  0
LINE
  5
14DBC
330
14DAB
100
AcDbEntity
  8
PV0001_1
  6
Continuous
 62
     2
100
AcDbLine
 10
852.1348127129547
 20
578.7487175740634
 30
0.0
 11
852.0200076786831
 21
578.7715537152173
 31
0.0
  0
LINE
  5
14DBD
330
14DAB
100
AcDbEntity
  8
PV0001_1
  6
Continuous
 62
     2
100
AcDbLine
 10
851.9052026444116
 20
578.7487175740634
 30
0.0
 11
851.8078756358976
 21
578.6836857460817
 31
0.0
  0
LINE
  5
14DBE
330
14DAB
100
AcDbEntity
  8
PV0001_1
  6
Continuous
 62
     2
100
AcDbLine
 10
852.1348127129547
 20
578.7487175740634
 30
0.0
 11
852.2321397214684
 21
578.6836857460817
 31
0.0
  0
LINE
  5
14DBF
330
14DAB
100
AcDbEntity
  8
PV0001_1
  6
Continuous
 62
     2
100
AcDbLine
 10
851.8078756358976
 20
578.6836857460817
 30
0.0
 11
851.7428438079164
 21
578.5863587375681
 31
0.0
  0
LINE
  5
14DC0
330
14DAB
100
AcDbEntity
  8
PV0001_1
  6
Continuous
 62
     2
100
AcDbLine
 10
852.2321397214684
 20
578.6836857460817
 30
0.0
 11
852.2971715494501
 21
578.5863587375681
 31
0.0
  0
LINE
  5
14DC1
330
14DAB
100
AcDbEntity
  8
PV0001_1
  6
Continuous
 62
     2
100
AcDbLine
 10
851.7428438079164
 20
578.5863587375681
 30
0.0
 11
851.7200076667618
 21
578.4715537032965
 31
0.0
  0
LINE
  5
14DC2
330
14DAB
100
AcDbEntity
  8
PV0001_1
  6
Continuous
 62
     2
100
AcDbLine
 10
852.2971715494501
 20
578.5863587375681
 30
0.0
 11
852.3200076906041
 21
578.4715537032965
 31
0.0
  0
LINE
  5
14DC3
330
14DAB
100
AcDbEntity
  8
PV0001_1
  6
Continuous
 62
     2
100
AcDbLine
 10
851.7200076667618
 20
578.4715537032965
 30
0.0
 11
851.7428438079164
 21
578.3567486690249
 31
0.0
  0
LINE
  5
14DC4
330
14DAB
100
AcDbEntity
  8
PV0001_1
  6
Continuous
 62
     2
100
AcDbLine
 10
852.3200076906041
 20
578.4715537032965
 30
0.0
 11
852.2971715494501
 21
578.3567486690249
 31
0.0
  0
LINE
  5
14DC5
330
14DAB
100
AcDbEntity
  8
PV0001_1
  6
Continuous
 62
     2
100
AcDbLine
 10
851.7428438079164
 20
578.3567486690249
 30
0.0
 11
851.8078756358976
 21
578.2594216605112
 31
0.0
  0
LINE
  5
14DC6
330
14DAB
100
AcDbEntity
  8
PV0001_1
  6
Continuous
 62
     2
100
AcDbLine
 10
852.2971715494501
 20
578.3567486690249
 30
0.0
 11
852.2321397214684
 21
578.2594216605112
 31
0.0
  0
LINE
  5
14DC7
330
14DAB
100
AcDbEntity
  8
PV0001_1
  6
Continuous
 62
     2
100
AcDbLine
 10
851.8078756358976
 20
578.2594216605112
 30
0.0
 11
851.9052026444116
 21
578.1943898325295
 31
0.0
  0
LINE
  5
14DC8
330
14DAB
100
AcDbEntity
  8
PV0001_1
  6
Continuous
 62
     2
100
AcDbLine
 10
852.2321397214684
 20
578.2594216605112
 30
0.0
 11
852.1348127129547
 21
578.1943898325295
 31
0.0
  0
LINE
  5
14DC9
330
14DAB
100
AcDbEntity
  8
PV0001_1
  6
Continuous
 62
     2
100
AcDbLine
 10
852.1348127129547
 20
578.1943898325295
 30
0.0
 11
852.0200076786831
 21
578.1715536913756
 31
0.0
  0
LINE
  5
14DCA
330
14DAB
100
AcDbEntity
  8
PV0001_1
  6
Continuous
 62
     2
100
AcDbLine
 10
852.0200076786831
 20
578.1715536913756
 30
0.0
 11
851.9052026444116
 21
578.1943898325295
 31
0.0
  0
ENDBLK
  5
14DCB
330
14DAB
100
AcDbEntity
  8
0
100
AcDbBlockEnd
  0
BLOCK
  5
16B22
330
16B21
100
AcDbEntity
  8
0
100
AcDbBlockBegin
  2
*D13
 70
     1
 10
0.0
 20
0.0
 30
0.0
  3
*D13
  1

  0
LINE
  5
1762E
330
16B21
100
AcDbEntity
  8
dimension
 62
     7
440
 16777216
100
AcDbLine
 10
210.3242669442341
 20
128.9306928884392
 30
0.0
 11
221.0334513861523
 21
128.9306928884392
 31
0.0
  0
LINE
  5
1762F
330
16B21
100
AcDbEntity
  8
dimension
 62
     7
440
 16777216
100
AcDbLine
 10
210.3242669442341
 20
120.9306928884392
 30
0.0
 11
221.0334513861523
 21
120.9306928884392
 31
0.0
  0
LINE
  5
17630
330
16B21
100
AcDbEntity
  8
dimension
 62
     7
440
 16777216
100
AcDbLine
 10
220.0334513861522
 20
131.4306928884392
 30
0.0
 11
220.0334513861522
 21
133.9306928884392
 31
0.0
  0
LINE
  5
17631
330
16B21
100
AcDbEntity
  8
dimension
 62
     7
440
 16777216
100
AcDbLine
 10
220.0334513861522
 20
118.4306928884392
 30
0.0
 11
220.0334513861522
 21
115.9306928884392
 31
0.0
  0
LINE
  5
17632
330
16B21
100
AcDbEntity
  8
dimension
 62
     7
440
 16777216
100
AcDbLine
 10
220.0334513861522
 20
128.9306928884392
 30
0.0
 11
220.0334513861522
 21
120.9306928884392
 31
0.0
  0
INSERT
  5
17633
330
16B21
100
AcDbEntity
  8
dimension
 62
     7
440
 16777216
100
AcDbBlockReference
  2
_Open
 10
220.0334513861522
 20
128.9306928884392
 30
0.0
 41
2.5
 42
2.5
 43
2.5
 50
270.0
  0
INSERT
  5
17634
330
16B21
100
AcDbEntity
  8
dimension
 62
     7
440
 16777216
100
AcDbBlockReference
  2
_Open
 10
220.0334513861522
 20
120.9306928884392
 30
0.0
 41
2.5
 42
2.5
 43
2.5
 50
90.0
  0
MTEXT
  5
17635
330
16B21
100
AcDbEntity
  8
dimension
 62
     7
440
 16777216
100
AcDbMText
 10
216.9334513861522
 20
124.9306928884391
 30
0.0
 40
3.2
 41
0.0
 71
     5
 72
     1
  1
D
 11
0.0000000000000001
 21
1.0
 31
0.0
 73
     1
 44
1.0
  0
POINT
  5
17636
330
16B21
100
AcDbEntity
  8
Defpoints
 62
     0
440
 16777216
100
AcDbPoint
 10
209.3242669442342
 20
128.9306928884392
 30
0.0
  0
POINT
  5
17637
330
16B21
100
AcDbEntity
  8
Defpoints
 62
     0
440
 16777216
100
AcDbPoint
 10
209.3242669442342
 20
120.9306928884392
 30
0.0
  0
POINT
  5
17638
330
16B21
100
AcDbEntity
  8
Defpoints
 62
     0
440
 16777216
100
AcDbPoint
 10
220.0334513861522
 20
120.9306928884392
 30
0.0
  0
ENDBLK
  5
16B23
330
16B21
100
AcDbEntity
  8
0
100
AcDbBlockEnd
  0
BLOCK
  5
175F5
330
175F4
100
AcDbEntity
  8
0
100
AcDbBlockBegin
  2
_ACMOPEN15
 70
     0
 10
0.0
 20
0.0
 30
0.0
  3
_ACMOPEN15
  1

  0
LINE
  5
175F7
330
175F4
100
AcDbEntity
  8
2実線(中)
 62
     0
100
AcDbLine
 10
-1.0
 20
0.0
 30
0.0
 11
0.0
 21
0.0
 31
0.0
  0
LINE
  5
175F8
330
175F4
100
AcDbEntity
  8
2実線(中)
 62
     0
100
AcDbLine
 10
-1.0
 20
-0.131652497
 30
0.0
 11
0.0
 21
0.0
 31
0.0
  0
LINE
  5
175F9
330
175F4
100
AcDbEntity
  8
2実線(中)
 62
     0
100
AcDbLine
 10
0.0
 20
0.0
 30
0.0
 11
-1.0
 21
0.131652497
 31
0.0
  0
ENDBLK
  5
175F6
330
175F4
100
AcDbEntity
  8
0
100
AcDbBlockEnd
  0
BLOCK
  5
1760A
330
17609
100
AcDbEntity
  8
0
100
AcDbBlockBegin
  2
_ACMFILLEDHALF
 70
     0
 10
0.0
 20
0.0
 30
0.0
  3
_ACMFILLEDHALF
  1

  0
TRACE
  5
1760C
330
17609
100
AcDbEntity
  8
2実線(中)
 62
     0
100
AcDbTrace
 10
-0.8
 20
0.0
 30
0.0
 11
-1.0
 21
0.166666666
 31
0.0
 12
0.0
 22
0.0
 32
0.0
 13
0.0
 23
0.0
 33
0.0
  0
LINE
  5
1760D
330
17609
100
AcDbEntity
  8
2実線(中)
 62
     0
100
AcDbLine
 10
-1.0
 20
0.0
 30
0.0
 11
-0.8
 21
0.0
 31
0.0
  0
ENDBLK
  5
1760B
330
17609
100
AcDbEntity
  8
0
100
AcDbBlockEnd
  0
BLOCK
  5
17615
330
17614
100
AcDbEntity
  8
0
100
AcDbBlockBegin
  2
_ACMFILLED
 70
     0
 10
0.0
 20
0.0
 30
0.0
  3
_ACMFILLED
  1

  0
TRACE
  5
17617
330
17614
100
AcDbEntity
  8
2実線(中)
 62
     0
100
AcDbTrace
 10
-1.0
 20
-0.166666666
 30
0.0
 11
-1.0
 21
0.166666666
 31
0.0
 12
0.0
 22
0.0
 32
0.0
 13
0.0
 23
0.0
 33
0.0
  0
ENDBLK
  5
17616
330
17614
100
AcDbEntity
  8
0
100
AcDbBlockEnd
  0
BLOCK
  5
1761F
330
1761E
100
AcDbEntity
  8
0
100
AcDbBlockBegin
  2
_ACMFILLED15
 70
     0
 10
0.0
 20
0.0
 30
0.0
  3
_ACMFILLED15
  1

  0
TRACE
  5
17621
330
1761E
100
AcDbEntity
  8
2実線(中)
 62
     0
100
AcDbTrace
 10
-1.0
 20
-0.131652497
 30
0.0
 11
-1.0
 21
0.131652497
 31
0.0
 12
0.0
 22
0.0
 32
0.0
 13
0.0
 23
0.0
 33
0.0
  0
ENDBLK
  5
17620
330
1761E
100
AcDbEntity
  8
0
100
AcDbBlockEnd
  0
ENDSEC
  0
SECTION
  2
ENTITIES
  0
LINE
  5
14F49
330
1F
100
AcDbEntity
  8
PV0001_1
  6
Continuous
 62
     3
100
AcDbLine
 10
276.9999999999998
 20
191.0
 30
0.0
 11
276.9999999999998
 21
15.0
 31
0.0
  0
LINE
  5
14F4A
330
1F
100
AcDbEntity
  8
PV0001_1
  6
Continuous
 62
     3
100
AcDbLine
 10
5.382080078129888
 20
191.0
 30
0.0
 11
276.9999999999998
 21
191.0
 31
0.0
  0
LINE
  5
14F4B
330
1F
100
AcDbEntity
  8
PV0001_1
  6
Continuous
 62
     3
100
AcDbLine
 10
5.0
 20
15.0
 30
0.0
 11
276.9999999999998
 21
15.0
 31
0.0
  0
LINE
  5
14F4C
330
1F
100
AcDbEntity
  8
PV0001_1
  6
Continuous
 62
     4
100
AcDbLine
 10
112.0000000000001
 20
13.0
 30
0.0
 11
191.9999999999997
 21
13.0
 31
0.0
  0
LINE
  5
14F4D
330
1F
100
AcDbEntity
  8
PV0001_1
  6
Continuous
 62
     4
100
AcDbLine
 10
112.0000000000001
 20
5.0
 30
0.0
 11
191.9999999999997
 21
5.0
 31
0.0
  0
LINE
  5
14F4E
330
1F
100
AcDbEntity
  8
PV0001_1
  6
Continuous
 62
     4
100
AcDbLine
 10
276.9999999999998
 20
13.0
 30
0.0
 11
276.9999999999998
 21
5.0
 31
0.0
  0
LINE
  5
14F4F
330
1F
100
AcDbEntity
  8
PV0001_1
  6
Continuous
 62
     4
100
AcDbLine
 10
196.9999999999997
 20
13.0
 30
0.0
 11
196.9999999999997
 21
5.0
 31
0.0
  0
LINE
  5
14F50
330
1F
100
AcDbEntity
  8
PV0001_1
  6
Continuous
 62
     4
100
AcDbLine
 10
191.9999999999997
 20
13.0
 30
0.0
 11
191.9999999999997
 21
5.0
 31
0.0
  0
LINE
  5
14F51
330
1F
100
AcDbEntity
  8
PV0001_1
  6
Continuous
 62
     4
100
AcDbLine
 10
112.0000000000001
 20
13.0
 30
0.0
 11
112.0000000000001
 21
5.0
 31
0.0
  0
LINE
  5
14F52
330
1F
100
AcDbEntity
  8
PV0001_1
  6
Continuous
 62
     4
100
AcDbLine
 10
196.9999999999997
 20
13.0
 30
0.0
 11
276.9999999999998
 21
13.0
 31
0.0
  0
LINE
  5
14F53
330
1F
100
AcDbEntity
  8
PV0001_1
  6
Continuous
 62
     4
100
AcDbLine
 10
196.9999999999997
 20
5.0
 30
0.0
 11
276.9999999999998
 21
5.0
 31
0.0
  0
LINE
  5
14F54
330
1F
100
AcDbEntity
  8
PV0001_1
  6
Continuous
 62
     3
100
AcDbLine
 10
4.99996948243006
 20
199.0000152587797
 30
0.0
 11
4.99996948243006
 21
15.00000190734801
 31
0.0
  0
LINE
  5
14F55
330
1F
100
AcDbEntity
  8
PV0001_1
  6
Continuous
 62
     3
100
AcDbLine
 10
37.00000000000012
 20
199.0
 30
0.0
 11
37.00000000000012
 21
191.0
 31
0.0
  0
LINE
  5
14F56
330
1F
100
AcDbEntity
  8
PV0001_1
  6
Continuous
 62
     4
100
AcDbLine
 10
5.0
 20
7.0
 30
0.0
 11
6.600006103519831
 21
7.0
 31
0.0
  0
LINE
  5
14F57
330
1F
100
AcDbEntity
  8
PV0001_1
  6
Continuous
 62
     4
100
AcDbLine
 10
5.0
 20
11.80000019073486
 30
0.0
 11
5.0
 21
7.0
 31
0.0
  0
LINE
  5
14F58
330
1F
100
AcDbEntity
  8
PV0001_1
  6
Continuous
 62
     4
100
AcDbLine
 10
5.0
 20
11.80000019073486
 30
0.0
 11
6.600006103519831
 21
11.80000019073486
 31
0.0
  0
LINE
  5
14F59
330
1F
100
AcDbEntity
  8
PV0001_1
  6
Continuous
 62
     4
100
AcDbLine
 10
6.600006103519831
 20
11.80000019073486
 30
0.0
 11
6.600006103519831
 21
10.19999980926519
 31
0.0
  0
LINE
  5
14F5A
330
1F
100
AcDbEntity
  8
PV0001_1
  6
Continuous
 62
     4
100
AcDbLine
 10
11.60000610351983
 20
11.80000019073486
 30
0.0
 11
11.60000610351983
 21
8.199999809265193
 31
0.0
  0
LINE
  5
14F5B
330
1F
100
AcDbEntity
  8
PV0001_1
  6
Continuous
 62
     4
100
AcDbLine
 10
12.79998779296988
 20
7.0
 30
0.0
 11
16.60000610351983
 21
7.0
 31
0.0
  0
LINE
  5
14F5C
330
1F
100
AcDbEntity
  8
PV0001_1
  6
Continuous
 62
     4
100
AcDbLine
 10
11.60000610351983
 20
11.80000019073486
 30
0.0
 11
13.0
 21
11.80000019073486
 31
0.0
  0
LINE
  5
14F5D
330
1F
100
AcDbEntity
  8
PV0001_1
  6
Continuous
 62
     4
100
AcDbLine
 10
6.799987792969886
 20
9.399999618530273
 30
0.0
 11
7.700012207040003
 21
9.399999618530273
 31
0.0
  0
LINE
  5
14F5E
330
1F
100
AcDbEntity
  8
PV0001_1
  6
Continuous
 62
     4
100
AcDbLine
 10
6.799987792969886
 20
10.0
 30
0.0
 11
7.702178955079602
 21
10.0
 31
0.0
  0
LINE
  5
14F5F
330
1F
100
AcDbEntity
  8
PV0001_1
  6
Continuous
 62
     4
100
AcDbLine
 10
7.85986328125
 20
9.319912433624267
 30
0.0
 11
9.599884033209832
 21
6.999917507171517
 31
0.0
  0
LINE
  5
14F60
330
1F
100
AcDbEntity
  8
PV0001_1
  6
Continuous
 62
     4
100
AcDbLine
 10
9.320617675790003
 20
9.659427165985107
 30
0.0
 11
11.6000671386796
 21
7.000047922134399
 31
0.0
  0
LINE
  5
14F61
330
1F
100
AcDbEntity
  8
PV0001_1
  6
Continuous
 62
     4
100
AcDbLine
 10
7.860015869149719
 20
10.0772180557251
 30
0.0
 11
9.199951171880115
 21
11.80001163482671
 31
0.0
  0
LINE
  5
14F62
330
1F
100
AcDbEntity
  8
PV0001_1
  6
Continuous
 62
     4
100
AcDbLine
 10
9.331024169929946
 20
9.930910110473519
 30
0.0
 11
11.20007324219
 21
11.79994821548467
 31
0.0
  0
LINE
  5
14F63
330
1F
100
AcDbEntity
  8
PV0001_1
  6
Continuous
 62
     4
100
AcDbLine
 10
9.600006103519831
 20
7.0
 30
0.0
 11
11.60000610351983
 21
7.0
 31
0.0
  0
LINE
  5
14F64
330
1F
100
AcDbEntity
  8
PV0001_1
  6
Continuous
 62
     4
100
AcDbLine
 10
9.20001220703989
 20
11.80000019073486
 30
0.0
 11
11.20001220704
 21
11.80000019073486
 31
0.0
  0
LINE
  5
14F65
330
1F
100
AcDbEntity
  8
PV0001_1
  6
Continuous
 62
     4
100
AcDbLine
 10
6.600006103519831
 20
9.199999809265193
 30
0.0
 11
6.600006103519831
 21
7.0
 31
0.0
  0
LINE
  5
14F66
330
1F
100
AcDbEntity
  8
PV0001_1
  6
Continuous
 62
     4
100
AcDbLine
 10
17.79998779297011
 20
11.80000019073486
 30
0.0
 11
17.79998779297011
 21
8.199999809265193
 31
0.0
  0
LINE
  5
14F67
330
1F
100
AcDbEntity
  8
PV0001_1
  6
Continuous
 62
     4
100
AcDbLine
 10
13.0
 20
11.80000019073486
 30
0.0
 11
13.0
 21
8.399999618530273
 31
0.0
  0
LINE
  5
14F68
330
1F
100
AcDbEntity
  8
PV0001_1
  6
Continuous
 62
     4
100
AcDbLine
 10
16.39999389648994
 20
11.80000019073486
 30
0.0
 11
16.39999389648994
 21
8.399999618530273
 31
0.0
  0
LINE
  5
14F69
330
1F
100
AcDbEntity
  8
PV0001_1
  6
Continuous
 62
     4
100
AcDbLine
 10
13.60000610351983
 20
7.800000190734863
 30
0.0
 11
15.79998779296988
 21
7.800000190734863
 31
0.0
  0
LINE
  5
14F6A
330
1F
100
AcDbEntity
  8
PV0001_1
  6
Continuous
 62
     4
100
AcDbLine
 10
16.39999389648994
 20
11.80000019073486
 30
0.0
 11
17.79998779297011
 21
11.80000019073486
 31
0.0
  0
LINE
  5
14F6B
330
1F
100
AcDbEntity
  8
PV0001_1
  6
Continuous
 62
     4
100
AcDbLine
 10
18.29998779296989
 20
11.80000019073486
 30
0.0
 11
23.0
 21
11.80000019073486
 31
0.0
  0
LINE
  5
14F6C
330
1F
100
AcDbEntity
  8
PV0001_1
  6
Continuous
 62
     4
100
AcDbLine
 10
18.29998779296989
 20
7.0
 30
0.0
 11
19.89999389648994
 21
7.0
 31
0.0
  0
LINE
  5
14F6D
330
1F
100
AcDbEntity
  8
PV0001_1
  6
Continuous
 62
     4
100
AcDbLine
 10
18.29998779296989
 20
11.80000019073486
 30
0.0
 11
18.29998779296989
 21
7.0
 31
0.0
  0
LINE
  5
14F6E
330
1F
100
AcDbEntity
  8
PV0001_1
  6
Continuous
 62
     4
100
AcDbLine
 10
22.79998779296989
 20
10.60000038146972
 30
0.0
 11
22.79998779296989
 21
9.899999618530273
 31
0.0
  0
LINE
  5
14F6F
330
1F
100
AcDbEntity
  8
PV0001_1
  6
Continuous
 62
     4
100
AcDbLine
 10
19.89999389648994
 20
11.00000000000005
 30
0.0
 11
19.89999389648994
 21
9.5
 31
0.0
  0
LINE
  5
14F70
330
1F
100
AcDbEntity
  8
PV0001_1
  6
Continuous
 62
     4
100
AcDbLine
 10
20.29998779296989
 20
8.600000381469783
 30
0.0
 11
22.20001220704
 21
8.600000381469783
 31
0.0
  0
LINE
  5
14F71
330
1F
100
AcDbEntity
  8
PV0001_1
  6
Continuous
 62
     4
100
AcDbLine
 10
20.10000610351972
 20
11.20000076293957
 30
0.0
 11
22.20001220704
 21
11.20000076293957
 31
0.0
  0
LINE
  5
14F72
330
1F
100
AcDbEntity
  8
PV0001_1
  6
Continuous
 62
     4
100
AcDbLine
 10
20.10000610351972
 20
9.300000190734976
 30
0.0
 11
22.20001220704
 21
9.300000190734976
 31
0.0
  0
LINE
  5
14F73
330
1F
100
AcDbEntity
  8
PV0001_1
  6
Continuous
 62
     4
100
AcDbLine
 10
22.79998779296989
 20
7.0
 30
0.0
 11
24.50000000000012
 21
7.0
 31
0.0
  0
LINE
  5
14F74
330
1F
100
AcDbEntity
  8
PV0001_1
  6
Continuous
 62
     4
100
AcDbLine
 10
19.89999389648994
 20
8.199999809265193
 30
0.0
 11
19.89999389648994
 21
7.0
 31
0.0
  0
LINE
  5
14F75
330
1F
100
AcDbEntity
  8
PV0001_1
  6
Continuous
 62
     4
100
AcDbLine
 10
26.20001220703989
 20
7.0
 30
0.0
 11
30.0
 21
7.0
 31
0.0
  0
LINE
  5
14F76
330
1F
100
AcDbEntity
  8
PV0001_1
  6
Continuous
 62
     4
100
AcDbLine
 10
27.20001220704023
 20
11.20000076293957
 30
0.0
 11
27.53088378907012
 21
11.20000076293957
 31
0.0
  0
LINE
  5
14F77
330
1F
100
AcDbEntity
  8
PV0001_1
  6
Continuous
 62
     4
100
AcDbLine
 10
26.20001220703989
 20
11.80000019073486
 30
0.0
 11
27.53088378907012
 21
11.80000019073486
 31
0.0
  0
LINE
  5
14F78
330
1F
100
AcDbEntity
  8
PV0001_1
  6
Continuous
 62
     4
100
AcDbLine
 10
22.79998779296989
 20
8.0
 30
0.0
 11
22.79998779296989
 21
7.0
 31
0.0
  0
LINE
  5
14F79
330
1F
100
AcDbEntity
  8
PV0001_1
  6
Continuous
 62
     4
100
AcDbLine
 10
24.79998779296989
 20
10.39999961853027
 30
0.0
 11
24.79998779296989
 21
8.399999618530273
 31
0.0
  0
LINE
  5
14F7A
330
1F
100
AcDbEntity
  8
PV0001_1
  6
Continuous
 62
     4
100
AcDbLine
 10
31.39999389648995
 20
10.39999961853027
 30
0.0
 11
31.39999389648995
 21
8.399999618530273
 31
0.0
  0
LINE
  5
14F7B
330
1F
100
AcDbEntity
  8
PV0001_1
  6
Continuous
 62
     4
100
AcDbLine
 10
31.79367065429961
 20
7.0
 30
0.0
 11
36.79998779296989
 21
7.0
 31
0.0
  0
LINE
  5
14F7C
330
1F
100
AcDbEntity
  8
PV0001_1
  6
Continuous
 62
     4
100
AcDbLine
 10
33.60000610351983
 20
11.20000076293957
 30
0.0
 11
34.44976806640989
 21
11.20000076293957
 31
0.0
  0
LINE
  5
14F7D
330
1F
100
AcDbEntity
  8
PV0001_1
  6
Continuous
 62
     4
100
AcDbLine
 10
31.79998779296989
 20
11.80000019073486
 30
0.0
 11
34.44976806640989
 21
11.80000019073486
 31
0.0
  0
LINE
  5
14F7E
330
1F
100
AcDbEntity
  8
PV0001_1
  6
Continuous
 62
     4
100
AcDbLine
 10
27.20001220704023
 20
7.800000190734863
 30
0.0
 11
29.0
 21
7.800000190734863
 31
0.0
  0
LINE
  5
14F7F
330
1F
100
AcDbEntity
  8
PV0001_1
  6
Continuous
 62
     4
100
AcDbLine
 10
26.39999389648983
 20
10.39999961853027
 30
0.0
 11
26.39999389648983
 21
8.600000381469783
 31
0.0
  0
LINE
  5
14F80
330
1F
100
AcDbEntity
  8
PV0001_1
  6
Continuous
 62
     4
100
AcDbLine
 10
29.79998779296989
 20
10.39999961853027
 30
0.0
 11
29.79998779296989
 21
8.600000381469783
 31
0.0
  0
LINE
  5
14F81
330
1F
100
AcDbEntity
  8
PV0001_1
  6
Continuous
 62
     4
100
AcDbLine
 10
38.20001220704
 20
10.39999961853027
 30
0.0
 11
38.20001220704
 21
8.399999618530273
 31
0.0
  0
LINE
  5
14F82
330
1F
100
AcDbEntity
  8
PV0001_1
  6
Continuous
 62
     4
100
AcDbLine
 10
31.79998779296989
 20
11.80000019073486
 30
0.0
 11
31.79998779296989
 21
7.0
 31
0.0
  0
LINE
  5
14F83
330
1F
100
AcDbEntity
  8
PV0001_1
  6
Continuous
 62
     4
100
AcDbLine
 10
33.39999389648983
 20
11.00000000000005
 30
0.0
 11
33.39999389648983
 21
8.0
 31
0.0
  0
LINE
  5
14F84
330
1F
100
AcDbEntity
  8
PV0001_1
  6
Continuous
 62
     4
100
AcDbLine
 10
36.60000610351983
 20
10.39999961853027
 30
0.0
 11
36.60000610351983
 21
8.600000381469783
 31
0.0
  0
LINE
  5
14F85
330
1F
100
AcDbEntity
  8
PV0001_1
  6
Continuous
 62
     4
100
AcDbLine
 10
33.60000610351983
 20
7.800000190734863
 30
0.0
 11
35.79998779296989
 21
7.800000190734863
 31
0.0
  0
LINE
  5
14F86
330
1F
100
AcDbEntity
  8
PV0001_1
  6
Continuous
 62
     4
100
AcDbLine
 10
38.20001220704
 20
7.0
 30
0.0
 11
39.80000305175963
 21
7.0
 31
0.0
  0
LINE
  5
14F87
330
1F
100
AcDbEntity
  8
PV0001_1
  6
Continuous
 62
     4
100
AcDbLine
 10
41.34414672851983
 20
11.20000076293957
 30
0.0
 11
42.255859375
 21
11.20000076293957
 31
0.0
  0
LINE
  5
14F88
330
1F
100
AcDbEntity
  8
PV0001_1
  6
Continuous
 62
     4
100
AcDbLine
 10
40.1999969482498
 20
11.80000019073486
 30
0.0
 11
43.39999389648983
 21
11.80000019073486
 31
0.0
  0
LINE
  5
14F89
330
1F
100
AcDbEntity
  8
PV0001_1
  6
Continuous
 62
     4
100
AcDbLine
 10
40.27749633789972
 20
8.0
 30
0.0
 11
41.65161132812989
 21
8.0
 31
0.0
  0
LINE
  5
14F8A
330
1F
100
AcDbEntity
  8
PV0001_1
  6
Continuous
 62
     4
100
AcDbLine
 10
40.67749023438
 20
8.800000190734976
 30
0.0
 11
41.65161132812989
 21
8.800000190734976
 31
0.0
  0
LINE
  5
14F8B
330
1F
100
AcDbEntity
  8
PV0001_1
  6
Continuous
 62
     4
100
AcDbLine
 10
39.80029296875012
 20
6.999891042709236
 30
0.0
 11
40.08804321289971
 21
7.863138437271175
 31
0.0
  0
LINE
  5
14F8C
330
1F
100
AcDbEntity
  8
PV0001_1
  6
Continuous
 62
     4
100
AcDbLine
 10
42.44587707519985
 20
11.0633544921875
 30
0.0
 11
43.11253356934003
 21
9.0633544921875
 31
0.0
  0
LINE
  5
14F8D
330
1F
100
AcDbEntity
  8
PV0001_1
  6
Continuous
 62
     4
100
AcDbLine
 10
40.19996643066986
 20
11.80002164840698
 30
0.0
 11
38.19996643066986
 21
7.000017642974853
 31
0.0
  0
LINE
  5
14F8E
330
1F
100
AcDbEntity
  8
PV0001_1
  6
Continuous
 62
     4
100
AcDbLine
 10
43.40000915528015
 20
11.79999160766601
 30
0.0
 11
45.40000915528014
 21
6.999987125396614
 31
0.0
  0
LINE
  5
14F8F
330
1F
100
AcDbEntity
  8
PV0001_1
  6
Continuous
 62
     4
100
AcDbLine
 10
40.48803710938
 20
9.063135623931884
 30
0.0
 11
41.15470886231003
 21
11.06313514709472
 31
0.0
  0
LINE
  5
14F90
330
1F
100
AcDbEntity
  8
PV0001_1
  6
Continuous
 62
     4
100
AcDbLine
 10
43.51254272460994
 20
7.863343238830623
 30
0.0
 11
43.80029296875022
 21
7.000095844268628
 31
0.0
  0
LINE
  5
14F91
330
1F
100
AcDbEntity
  8
PV0001_1
  6
Continuous
 62
     4
100
AcDbLine
 10
43.80000305176008
 20
7.0
 30
0.0
 11
45.39999389648983
 21
7.0
 31
0.0
  0
LINE
  5
14F92
330
1F
100
AcDbEntity
  8
PV0001_1
  6
Continuous
 62
     4
100
AcDbLine
 10
27.55087280273983
 20
11.80000019073486
 30
0.0
 11
30.0
 21
11.80000019073486
 31
0.0
  0
LINE
  5
14F93
330
1F
100
AcDbEntity
  8
PV0001_1
  6
Continuous
 62
     4
100
AcDbLine
 10
27.55087280273983
 20
11.20000076293957
 30
0.0
 11
29.0
 21
11.20000076293957
 31
0.0
  0
LINE
  5
14F94
330
1F
100
AcDbEntity
  8
PV0001_1
  6
Continuous
 62
     4
100
AcDbLine
 10
34.46978759766
 20
11.80000019073486
 30
0.0
 11
36.79998779296989
 21
11.80000019073486
 31
0.0
  0
LINE
  5
14F95
330
1F
100
AcDbEntity
  8
PV0001_1
  6
Continuous
 62
     4
100
AcDbLine
 10
34.46978759766
 20
11.20000076293957
 30
0.0
 11
35.79998779296989
 21
11.20000076293957
 31
0.0
  0
LINE
  5
14F96
330
1F
100
AcDbEntity
  8
PV0001_1
  6
Continuous
 62
     4
100
AcDbLine
 10
41.67160034179971
 20
8.800000190734976
 30
0.0
 11
42.92251586914971
 21
8.800000190734976
 31
0.0
  0
LINE
  5
14F97
330
1F
100
AcDbEntity
  8
PV0001_1
  6
Continuous
 62
     4
100
AcDbLine
 10
41.67160034179971
 20
8.0
 30
0.0
 11
43.32250976563
 21
8.0
 31
0.0
  0
LINE
  5
14F98
330
1F
100
AcDbEntity
  8
PV0001_1
  6
Continuous
 62
     3
100
AcDbLine
 10
5.0
 20
199.0
 30
0.0
 11
37.00000000000012
 21
199.0
 31
0.0
  0
LINE
  5
14F99
330
1F
100
AcDbEntity
  8
PV0001_1
  6
Continuous
 62
     4
100
AcDbLine
 10
210.9999999999998
 20
27.0
 30
0.0
 11
210.9999999999998
 21
15.0
 31
0.0
  0
LINE
  5
14F9A
330
1F
100
AcDbEntity
  8
PV0001_1
  6
Continuous
 62
     4
100
AcDbLine
 10
210.9999999999998
 20
27.0
 30
0.0
 11
276.9999999999998
 21
27.0
 31
0.0
  0
LINE
  5
14F9B
330
1F
100
AcDbEntity
  8
PV0001_1
  6
Continuous
 62
     4
100
AcDbLine
 10
210.9999999999998
 20
21.0
 30
0.0
 11
276.9999999999998
 21
21.0
 31
0.0
  0
ARC
  5
14F9C
330
1F
100
AcDbEntity
  8
PV0001_1
  6
Continuous
 62
     4
100
AcDbCircle
 10
9.472381591799717
 20
9.789539337158032
 30
0.0
 40
0.2000000029802
100
AcDbArc
 50
135.0000549831369
 51
220.6012585677704
  0
ARC
  5
14F9D
330
1F
100
AcDbEntity
  8
PV0001_1
  6
Continuous
 62
     4
100
AcDbCircle
 10
7.702178955079602
 20
10.19999980926519
 30
0.0
 40
0.2000000029802
100
AcDbArc
 50
270.0000179860857
 51
322.1249959578264
  0
ARC
  5
14F9E
330
1F
100
AcDbEntity
  8
PV0001_1
  6
Continuous
 62
     4
100
AcDbCircle
 10
7.700012207040003
 20
9.199999809265193
 30
0.0
 40
0.2000000029802
100
AcDbArc
 50
36.86990755486321
 51
89.99998201390772
  0
ARC
  5
14F9F
330
1F
100
AcDbEntity
  8
PV0001_1
  6
Continuous
 62
     4
100
AcDbCircle
 10
6.799987792969886
 20
10.19999980926519
 30
0.0
 40
0.2000000029802
100
AcDbArc
 50
179.9999776882002
 51
270.0000280039997
  0
ARC
  5
14FA0
330
1F
100
AcDbEntity
  8
PV0001_1
  6
Continuous
 62
     4
100
AcDbCircle
 10
6.799987792969886
 20
9.199999809265193
 30
0.0
 40
0.2000000029802
100
AcDbArc
 50
89.99998201390772
 51
179.9999640278186
  0
ARC
  5
14FA1
330
1F
100
AcDbEntity
  8
PV0001_1
  6
Continuous
 62
     4
100
AcDbCircle
 10
12.79998779296988
 20
8.199999809265193
 30
0.0
 40
1.2000000476837
100
AcDbArc
 50
179.9999776882002
 51
270.0000280039997
  0
ARC
  5
14FA2
330
1F
100
AcDbEntity
  8
PV0001_1
  6
Continuous
 62
     4
100
AcDbCircle
 10
16.60000610351983
 20
8.199999809265193
 30
0.0
 40
1.2000000476837
100
AcDbArc
 50
270.0000179860857
 51
0.0
  0
ARC
  5
14FA3
330
1F
100
AcDbEntity
  8
PV0001_1
  6
Continuous
 62
     4
100
AcDbCircle
 10
15.79998779296988
 20
8.399999618530273
 30
0.0
 40
0.6000000238419
100
AcDbArc
 50
270.0000179860857
 51
0.0
  0
ARC
  5
14FA4
330
1F
100
AcDbEntity
  8
PV0001_1
  6
Continuous
 62
     4
100
AcDbCircle
 10
13.60000610351983
 20
8.399999618530273
 30
0.0
 40
0.6000000238419
100
AcDbArc
 50
179.9999776882002
 51
270.0000280039997
  0
ARC
  5
14FA5
330
1F
100
AcDbEntity
  8
PV0001_1
  6
Continuous
 62
     4
100
AcDbCircle
 10
22.50000000000011
 20
7.0
 30
0.0
 40
2.0
100
AcDbArc
 50
0.0
 51
54.4267312314572
  0
ARC
  5
14FA6
330
1F
100
AcDbEntity
  8
PV0001_1
  6
Continuous
 62
     4
100
AcDbCircle
 10
23.0
 20
10.30000019073497
 30
0.0
 40
1.5
100
AcDbArc
 50
0.0
 51
89.99998201390772
  0
ARC
  5
14FA7
330
1F
100
AcDbEntity
  8
PV0001_1
  6
Continuous
 62
     4
100
AcDbCircle
 10
23.0
 20
10.30000019073497
 30
0.0
 40
1.5
100
AcDbArc
 50
297.3049900989723
 51
0.0
  0
ARC
  5
14FA8
330
1F
100
AcDbEntity
  8
PV0001_1
  6
Continuous
 62
     4
100
AcDbCircle
 10
20.29998779296989
 20
8.199999809265193
 30
0.0
 40
0.4000000059605
100
AcDbArc
 50
89.99998201390772
 51
179.9999640278186
  0
ARC
  5
14FA9
330
1F
100
AcDbEntity
  8
PV0001_1
  6
Continuous
 62
     4
100
AcDbCircle
 10
22.20001220704
 20
8.0
 30
0.0
 40
0.6000000238419
100
AcDbArc
 50
0.0
 51
89.99998201390772
  0
ARC
  5
14FAA
330
1F
100
AcDbEntity
  8
PV0001_1
  6
Continuous
 62
     4
100
AcDbCircle
 10
23.77984619140989
 20
8.789419174194335
 30
0.0
 40
0.2000000029802
100
AcDbArc
 50
117.3049472966021
 51
234.42673624042
  0
ARC
  5
14FAB
330
1F
100
AcDbEntity
  8
PV0001_1
  6
Continuous
 62
     4
100
AcDbCircle
 10
20.10000610351972
 20
11.00000000000005
 30
0.0
 40
0.2000000029802
100
AcDbArc
 50
89.99998201390772
 51
179.9999640278186
  0
ARC
  5
14FAC
330
1F
100
AcDbEntity
  8
PV0001_1
  6
Continuous
 62
     4
100
AcDbCircle
 10
20.10000610351972
 20
9.5
 30
0.0
 40
0.2000000029802
100
AcDbArc
 50
179.9999776882002
 51
270.0000280039997
  0
ARC
  5
14FAD
330
1F
100
AcDbEntity
  8
PV0001_1
  6
Continuous
 62
     4
100
AcDbCircle
 10
22.20001220704
 20
9.899999618530273
 30
0.0
 40
0.6000000238419
100
AcDbArc
 50
270.0000179860857
 51
0.0
  0
ARC
  5
14FAE
330
1F
100
AcDbEntity
  8
PV0001_1
  6
Continuous
 62
     4
100
AcDbCircle
 10
22.20001220704
 20
10.60000038146972
 30
0.0
 40
0.6000000238419
100
AcDbArc
 50
0.0
 51
89.99998201390772
  0
ARC
  5
14FAF
330
1F
100
AcDbEntity
  8
PV0001_1
  6
Continuous
 62
     4
100
AcDbCircle
 10
26.20001220703989
 20
8.399999618530273
 30
0.0
 40
1.399999976158099
100
AcDbArc
 50
179.9999776882002
 51
270.0000280039997
  0
ARC
  5
14FB0
330
1F
100
AcDbEntity
  8
PV0001_1
  6
Continuous
 62
     4
100
AcDbCircle
 10
30.0
 20
8.399999618530273
 30
0.0
 40
1.399999976158099
100
AcDbArc
 50
270.0000179860857
 51
0.0
  0
ARC
  5
14FB1
330
1F
100
AcDbEntity
  8
PV0001_1
  6
Continuous
 62
     4
100
AcDbCircle
 10
30.0
 20
10.39999961853027
 30
0.0
 40
1.399999976158099
100
AcDbArc
 50
0.0
 51
89.99998201390772
  0
ARC
  5
14FB2
330
1F
100
AcDbEntity
  8
PV0001_1
  6
Continuous
 62
     4
100
AcDbCircle
 10
26.20001220703989
 20
10.39999961853027
 30
0.0
 40
1.399999976158099
100
AcDbArc
 50
89.99998201390772
 51
179.9999640278186
  0
ARC
  5
14FB3
330
1F
100
AcDbEntity
  8
PV0001_1
  6
Continuous
 62
     4
100
AcDbCircle
 10
27.20001220704023
 20
10.39999961853027
 30
0.0
 40
0.8000000119209001
100
AcDbArc
 50
89.99998201390772
 51
179.9999640278186
  0
ARC
  5
14FB4
330
1F
100
AcDbEntity
  8
PV0001_1
  6
Continuous
 62
     4
100
AcDbCircle
 10
27.20001220704023
 20
8.600000381469783
 30
0.0
 40
0.8000000119209001
100
AcDbArc
 50
179.9999776882002
 51
270.0000280039997
  0
ARC
  5
14FB5
330
1F
100
AcDbEntity
  8
PV0001_1
  6
Continuous
 62
     4
100
AcDbCircle
 10
29.0
 20
8.600000381469783
 30
0.0
 40
0.8000000119209001
100
AcDbArc
 50
270.0000179860857
 51
0.0
  0
ARC
  5
14FB6
330
1F
100
AcDbEntity
  8
PV0001_1
  6
Continuous
 62
     4
100
AcDbCircle
 10
29.0
 20
10.39999961853027
 30
0.0
 40
0.8000000119209001
100
AcDbArc
 50
0.0
 51
89.99998201390772
  0
ARC
  5
14FB7
330
1F
100
AcDbEntity
  8
PV0001_1
  6
Continuous
 62
     4
100
AcDbCircle
 10
33.60000610351983
 20
11.00000000000005
 30
0.0
 40
0.2000000029802
100
AcDbArc
 50
89.99998201390772
 51
179.9999640278186
  0
ARC
  5
14FB8
330
1F
100
AcDbEntity
  8
PV0001_1
  6
Continuous
 62
     4
100
AcDbCircle
 10
33.60000610351983
 20
8.0
 30
0.0
 40
0.2000000029802
100
AcDbArc
 50
179.9999776882002
 51
270.0000280039997
  0
ARC
  5
14FB9
330
1F
100
AcDbEntity
  8
PV0001_1
  6
Continuous
 62
     4
100
AcDbCircle
 10
35.79998779296989
 20
8.600000381469783
 30
0.0
 40
0.8000000119209001
100
AcDbArc
 50
270.0000179860857
 51
0.0
  0
ARC
  5
14FBA
330
1F
100
AcDbEntity
  8
PV0001_1
  6
Continuous
 62
     4
100
AcDbCircle
 10
35.79998779296989
 20
10.39999961853027
 30
0.0
 40
0.8000000119209001
100
AcDbArc
 50
0.0
 51
89.99998201390772
  0
ARC
  5
14FBB
330
1F
100
AcDbEntity
  8
PV0001_1
  6
Continuous
 62
     4
100
AcDbCircle
 10
36.79998779296989
 20
8.399999618530273
 30
0.0
 40
1.399999976158099
100
AcDbArc
 50
270.0000179860857
 51
0.0
  0
ARC
  5
14FBC
330
1F
100
AcDbEntity
  8
PV0001_1
  6
Continuous
 62
     4
100
AcDbCircle
 10
36.79998779296989
 20
10.39999961853027
 30
0.0
 40
1.399999976158099
100
AcDbArc
 50
0.0
 51
89.99998201390772
  0
ARC
  5
14FBD
330
1F
100
AcDbEntity
  8
PV0001_1
  6
Continuous
 62
     4
100
AcDbCircle
 10
40.67749023438
 20
9.0
 30
0.0
 40
0.2000000029802
100
AcDbArc
 50
161.5650375711492
 51
270.000000683243
  0
ARC
  5
14FBE
330
1F
100
AcDbEntity
  8
PV0001_1
  6
Continuous
 62
     4
100
AcDbCircle
 10
42.92251586914971
 20
9.0
 30
0.0
 40
0.2000000029802
100
AcDbArc
 50
270.0000179860857
 51
18.43488035289839
  0
ARC
  5
14FBF
330
1F
100
AcDbEntity
  8
PV0001_1
  6
Continuous
 62
     4
100
AcDbCircle
 10
41.34414672851983
 20
11.00000000000005
 30
0.0
 40
0.2000000029802
100
AcDbArc
 50
89.99998201390772
 51
161.5651331937946
  0
ARC
  5
14FC0
330
1F
100
AcDbEntity
  8
PV0001_1
  6
Continuous
 62
     4
100
AcDbCircle
 10
42.255859375
 20
11.00000000000005
 30
0.0
 40
0.2000000029802
100
AcDbArc
 50
18.43505281517161
 51
89.99998201390772
  0
ARC
  5
14FC1
330
1F
100
AcDbEntity
  8
PV0001_1
  6
Continuous
 62
     4
100
AcDbCircle
 10
40.27749633789972
 20
7.800000190734863
 30
0.0
 40
0.2000000029802
100
AcDbArc
 50
89.99998201390772
 51
161.5650102503881
  0
ARC
  5
14FC2
330
1F
100
AcDbEntity
  8
PV0001_1
  6
Continuous
 62
     4
100
AcDbCircle
 10
43.32250976563
 20
7.800000190734863
 30
0.0
 40
0.2000000029802
100
AcDbArc
 50
18.43488035289839
 51
89.99998201390772
  0
INSERT
  5
14FC3
330
1F
100
AcDbEntity
  8
2実線_中_
100
AcDbBlockReference
  2
*U5
 10
-823.0200076786832
 20
-385.9715537032966
 30
0.0
  0
INSERT
  5
14FC4
330
1F
100
AcDbEntity
  8
2実線_中_
100
AcDbBlockReference
  2
*U6
 10
-823.0200076786832
 20
-385.9715537032966
 30
0.0
  0
INSERT
  5
14FC5
330
1F
100
AcDbEntity
  8
2実線_中_
100
AcDbBlockReference
  2
*U7
 10
-823.0200076786832
 20
-385.9715537032966
 30
0.0
  0
INSERT
  5
14FC6
330
1F
100
AcDbEntity
  8
2実線_中_
100
AcDbBlockReference
  2
*U8
 10
-823.0200076786832
 20
-385.9715537032966
 30
0.0
  0
INSERT
  5
14FC7
330
1F
100
AcDbEntity
  8
2実線_中_
100
AcDbBlockReference
  2
*U9
 10
-823.0200076786832
 20
-385.9715537032966
 30
0.0
  0
INSERT
  5
14FCA
330
1F
100
AcDbEntity
  8
2実線_中_
100
AcDbBlockReference
  2
*U10
 10
-823.0200076786832
 20
-385.9715537032966
 30
0.0
  0
CIRCLE
  5
14FCC
330
1F
100
AcDbEntity
  8
PV0001_1
  6
Continuous
 62
     2
100
AcDbCircle
 10
29.0
 20
195.5
 30
0.0
 40
0.3000000119209
  0
INSERT
  5
14FCD
330
1F
100
AcDbEntity
  8
PV0001_1
  6
Continuous
 62
     2
100
AcDbBlockReference
  2
*U11
 10
-823.0200076786832
 20
-385.9715537032966
 30
0.0
1001
ACAD
1002
{
1000
R14_HATCH_DATA
1000
12D65
1011
-822.0200076786833
1021
-385.9715537032966
1031
0.0
1011
-823.0200076786832
1021
-384.9715537032965
1031
0.0
1011
-823.0200076786832
1021
-385.9715537032966
1031
1.0
1040
0.0
1010
0.0
1020
0.0
1030
1.0
1000
SOLID
1070
     1
1070
     0
1071
        1
1071
        1
1071
        1
1070
     2
1040
852.0200076786831
1040
581.4715537032965
1040
0.3000000119209
1040
0.0
1040
6.283185307179584
1070
     1
1071
        0
1070
     0
1070
     1
1071
        1
1040
1105.020007678683
1040
389.9715537032965
1040
0.0
1002
}
  0
CIRCLE
  5
14FCE
330
1F
100
AcDbEntity
  8
PV0001_1
  6
Continuous
 62
     2
100
AcDbCircle
 10
29.0
 20
192.5
 30
0.0
 40
0.3000000119209
  0
INSERT
  5
14FCF
330
1F
100
AcDbEntity
  8
PV0001_1
  6
Continuous
 62
     2
100
AcDbBlockReference
  2
*U12
 10
-823.0200076786832
 20
-385.9715537032966
 30
0.0
1001
ACAD
1002
{
1000
R14_HATCH_DATA
1000
12D67
1011
-822.0200076786833
1021
-385.9715537032966
1031
0.0
1011
-823.0200076786832
1021
-384.9715537032965
1031
0.0
1011
-823.0200076786832
1021
-385.9715537032966
1031
1.0
1040
0.0
1010
0.0
1020
0.0
1030
1.0
1000
SOLID
1070
     1
1070
     0
1071
        1
1071
        1
1071
        1
1070
     2
1040
852.0200076786831
1040
578.4715537032965
1040
0.3000000119209
1040
0.0
1040
6.283185307179584
1070
     1
1071
        0
1070
     0
1070
     1
1071
        1
1040
1105.020007678683
1040
389.9715537032965
1040
0.0
1002
}
  0
MTEXT
  5
161D6
330
1F
100
AcDbEntity
  8
8文字(細)
100
AcDbMText
 10
128.0977097418436
 20
10.79202727566525
 30
0.0
 40
3.2
 41
26.14601631230267
 71
     1
 72
     5
  1
DM57(2011.09)
 73
     1
 44
1.0
1001
GENIUS_AMGTXT_16
1040
3.5
1040
0.12
  0
MTEXT
  5
161D8
330
1F
100
AcDbEntity
  8
8文字(細)
100
AcDbMText
 10
209.2770860198557
 20
9.325473653355516
 30
0.0
 40
3.2
 41
84.86082520539492
 71
     1
 72
     5
  1
HSK A 63-CMZ8-150(R3)
 73
     1
 44
1.0
1001
GENIUS_AMGTXT_16
1040
3.5
1040
0.12
  0
MTEXT
  5
161D9
330
1F
100
AcDbEntity
  8
8文字(細)
100
AcDbMText
 10
213.3415097464817
 20
19.55273932954242
 30
0.0
 40
3.2
 41
53.94141159968739
 71
     1
 72
     5
  1
HSK A 63-CMZ8-150
 73
     1
 44
1.0
1001
GENIUS_AMGTXT_16
1040
3.5
1040
0.12
1001
ACAD
1000
ACAD_MTEXT_DEFINED_HEIGHT_BEGIN
1070
    46
1040
3.16021820168595
1000
ACAD_MTEXT_DEFINED_HEIGHT_END
  0
MTEXT
  5
16B19
330
1F
100
AcDbEntity
  8
8文字(細)
100
AcDbMText
 10
172.9217155581462
 20
97.64774639227102
 30
0.0
 40
3.5
 41
46.97433908559276
 71
     1
 72
     5
  1
D MAX:8\P  MIN:0.75
 73
     1
 44
1.0
1001
GENIUS_AMGTXT_16
1040
3.5
1040
0.12
  0
LINE
  5
16B1E
102
{ACAD_REACTORS
330
16B30
102
}
330
1F
100
AcDbEntity
  8
4破線(中)
100
AcDbLine
 10
209.324266944234
 20
128.9306928884392
 30
0.0
 11
192.3242669442332
 21
128.9306928884392
 31
0.0
  0
DIMENSION
  5
16B20
102
{ACAD_XDICTIONARY
360
16B2F
102
}
102
{ACAD_REACTORS
330
16B30
102
}
330
1F
100
AcDbEntity
  8
dimension
100
AcDbDimension
  2
*D13
 10
220.0334513861522
 20
120.9306928884392
 30
0.0
 11
220.0334513861522
 21
124.9306928884391
 31
0.0
 70
   160
  1
D
 71
     5
 42
7.999999999999985
  3
JIS-KURODA$0
100
AcDbAlignedDimension
 13
209.324266944234
 23
128.9306928884392
 33
0.0
 14
209.324266944234
 24
120.9306928884392
 34
0.0
 50
90.0
100
AcDbRotatedDimension
1001
ACAD_DSTYLE_DIMINSPECT
1070
   396
1000
100%
1070
   395
1000

1070
   394
1070
    33
1070
   393
1070
     0
  0
LINE
  5
16C29
330
1F
100
AcDbEntity
  8
6一点鎖線(細)
100
AcDbLine
 10
17.91703581524746
 20
124.9306928884391
 30
0.0
 11
212.082705494941
 21
124.9306928884391
 31
0.0
1001
GENIUS_GENODEF_13
1002
{
1000
HIER
1070
     0
1002
}
1002
{
1000
MANEDIT
1070
     0
1002
}
1002
{
1000
NOSEL
1070
     0
1002
}
1002
{
1000
BEHIND
1070
     0
1002
}
1002
{
1000
OTHER
1070
     0
1002
}
1002
{
1000
REACTOR
1002
}
1001
GENIUS_GENOBJ-N-CEN_13
1002
{
1000
OWNER
1000
GEN
1002
}
1001
GENIUS_GENCEN_19
1002
{
1040
2.794
1002
}
  0
LINE
  5
16C2E
330
1F
100
AcDbEntity
  8
2実線(中)
100
AcDbLine
 10
183.7242669442335
 20
124.9306928884392
 30
0.0
 11
183.7242669442335
 21
136.9306928884391
 31
0.0
  0
ARC
  5
16C30
330
1F
100
AcDbEntity
  8
2実線(中)
100
AcDbCircle
 10
183.2242669442335
 20
136.9306928884391
 30
0.0
 40
0.5
100
AcDbArc
 50
0.0
 51
90.0
1001
GENIUS_GENODEF_13
1002
{
1000
HIER
1070
     0
1002
}
1002
{
1000
MANEDIT
1070
     0
1002
}
1002
{
1000
NOSEL
1070
     0
1002
}
1002
{
1000
BEHIND
1070
     0
1002
}
1002
{
1000
OTHER
1070
     0
1002
}
1002
{
1000
REACTOR
1002
}
1001
GENIUS_GENOBJ-N-FIL_13
1002
{
1000
OWNER
1000
GEN
1002
}
  0
LINE
  5
16C31
330
1F
100
AcDbEntity
  8
2実線(中)
100
AcDbLine
 10
183.2242669442335
 20
137.4306928884391
 30
0.0
 11
90.32426694423433
 21
137.4306928884391
 31
0.0
  0
LINE
  5
16C68
330
1F
100
AcDbEntity
  8
2実線(中)
100
AcDbLine
 10
186.824266944234
 20
124.9306928884391
 30
0.0
 11
186.824266944234
 21
137.2306928884391
 31
0.0
  0
ARC
  5
16C69
330
1F
100
AcDbEntity
  8
2実線(中)
100
AcDbCircle
 10
187.324266944234
 20
137.2306928884391
 30
0.0
 40
0.5
100
AcDbArc
 50
90.0
 51
180.0
1001
GENIUS_GENOBJ-N-FIL_13
1002
{
1000
OWNER
1000
GEN
1002
}
1001
GENIUS_GENODEF_13
1002
{
1000
HIER
1070
     0
1002
}
1002
{
1000
MANEDIT
1070
     0
1002
}
1002
{
1000
NOSEL
1070
     0
1002
}
1002
{
1000
BEHIND
1070
     0
1002
}
1002
{
1000
OTHER
1070
     0
1002
}
1002
{
1000
REACTOR
1002
}
  0
LINE
  5
16C6A
330
1F
100
AcDbEntity
  8
2実線(中)
100
AcDbLine
 10
187.324266944234
 20
137.7306928884391
 30
0.0
 11
188.824266944234
 21
137.7306928884391
 31
0.0
  0
LINE
  5
16C6C
330
1F
100
AcDbEntity
  8
2実線(中)
100
AcDbLine
 10
188.824266944234
 20
137.4306928884392
 30
0.0
 11
208.8242669442339
 21
137.4306928884392
 31
0.0
  0
LINE
  5
16C6D
330
1F
100
AcDbEntity
  8
2実線(中)
100
AcDbLine
 10
209.3242669442339
 20
136.9306928884391
 30
0.0
 11
209.324266944234
 21
124.9306928884392
 31
0.0
  0
ARC
  5
16C6F
330
1F
100
AcDbEntity
  8
2実線(中)
100
AcDbCircle
 10
208.8242669442339
 20
136.9306928884391
 30
0.0
 40
0.5
100
AcDbArc
 50
0.0
 51
90.0
1001
GENIUS_GENODEF_13
1002
{
1000
HIER
1070
     0
1002
}
1002
{
1000
MANEDIT
1070
     0
1002
}
1002
{
1000
NOSEL
1070
     0
1002
}
1002
{
1000
BEHIND
1070
     0
1002
}
1002
{
1000
OTHER
1070
     0
1002
}
1002
{
1000
REACTOR
1002
}
1001
GENIUS_GENOBJ-N-FIL_13
1002
{
1000
OWNER
1000
GEN
1002
}
  0
LINE
  5
16C78
330
1F
100
AcDbEntity
  8
2実線(中)
100
AcDbLine
 10
183.7242669442336
 20
135.4306928884392
 30
0.0
 11
186.824266944234
 21
135.4306928884392
 31
0.0
  0
LINE
  5
16C92
330
1F
100
AcDbEntity
  8
4破線(中)
100
AcDbLine
 10
164.324266944234
 20
124.9306928884391
 30
0.0
 11
164.324266944234
 21
129.4306928884391
 31
0.0
  0
LINE
  5
16C93
330
1F
100
AcDbEntity
  8
4破線(中)
100
AcDbLine
 10
164.324266944234
 20
129.4306928884392
 30
0.0
 11
154.3242669442341
 21
129.4306928884391
 31
0.0
  0
LINE
  5
16C95
330
1F
100
AcDbEntity
  8
4破線(中)
100
AcDbLine
 10
154.3242669442341
 20
129.4306928884392
 30
0.0
 11
154.3242669442341
 21
128.6806928884391
 31
0.0
  0
LINE
  5
16C97
330
1F
100
AcDbEntity
  8
4破線(中)
100
AcDbLine
 10
154.324266944234
 20
128.6806928884391
 30
0.0
 11
149.3242669442341
 21
128.6806928884391
 31
0.0
  0
LINE
  5
16C98
330
1F
100
AcDbEntity
  8
4破線(中)
100
AcDbLine
 10
149.3242669442341
 20
128.6806928884391
 30
0.0
 11
149.3242669442341
 21
124.9306928884391
 31
0.0
  0
LINE
  5
16C9C
330
1F
100
AcDbEntity
  8
4破線(中)
100
AcDbLine
 10
164.324266944234
 20
128.6806928884391
 30
0.0
 11
161.7289674826132
 21
126.0853934268184
 31
0.0
  0
LINE
  5
16C9E
330
1F
100
AcDbEntity
  8
4破線(中)
100
AcDbLine
 10
161.7289674826132
 20
126.0853934268184
 30
0.0
 11
161.7289674826132
 21
124.9306928884391
 31
0.0
  0
LINE
  5
16CAF
330
1F
100
AcDbEntity
  8
4破線(中)
100
AcDbLine
 10
183.3242669442336
 20
124.9306928884391
 30
0.0
 11
183.3242669442336
 21
129.4306928884391
 31
0.0
  0
LINE
  5
16CB0
330
1F
100
AcDbEntity
  8
4破線(中)
100
AcDbLine
 10
183.3242669442336
 20
129.4306928884392
 30
0.0
 11
178.3242669442335
 21
129.4306928884391
 31
0.0
  0
LINE
  5
16CB4
330
1F
100
AcDbEntity
  8
4破線(中)
100
AcDbLine
 10
183.3242669442336
 20
128.6806928884391
 30
0.0
 11
180.7289674826128
 21
126.0853934268184
 31
0.0
  0
LINE
  5
16CB5
330
1F
100
AcDbEntity
  8
4破線(中)
100
AcDbLine
 10
180.7289674826128
 20
126.0853934268184
 30
0.0
 11
180.7289674826128
 21
124.9306928884391
 31
0.0
  0
LINE
  5
16CB8
102
{ACAD_REACTORS
330
16B30
102
}
330
1F
100
AcDbEntity
  8
4破線(中)
100
AcDbLine
 10
209.324266944234
 20
120.9306928884391
 30
0.0
 11
192.3242669442332
 21
120.9306928884391
 31
0.0
  0
LINE
  5
16CB9
330
1F
100
AcDbEntity
  8
2実線(中)
100
AcDbLine
 10
183.7242669442335
 20
124.9306928884391
 30
0.0
 11
183.7242669442335
 21
112.9306928884391
 31
0.0
  0
ARC
  5
16CBA
330
1F
100
AcDbEntity
  8
2実線(中)
100
AcDbCircle
 10
183.2242669442335
 20
112.9306928884391
 30
0.0
 40
0.5
100
AcDbArc
 50
270.0
 51
0.0
1001
GENIUS_GENODEF_13
1002
{
1000
HIER
1070
     0
1002
}
1002
{
1000
MANEDIT
1070
     0
1002
}
1002
{
1000
NOSEL
1070
     0
1002
}
1002
{
1000
BEHIND
1070
     0
1002
}
1002
{
1000
OTHER
1070
     0
1002
}
1002
{
1000
REACTOR
1002
}
1001
GENIUS_GENOBJ-N-FIL_13
1002
{
1000
OWNER
1000
GEN
1002
}
  0
LINE
  5
16CBB
330
1F
100
AcDbEntity
  8
2実線(中)
100
AcDbLine
 10
183.2242669442335
 20
112.4306928884391
 30
0.0
 11
90.3242669442341
 21
112.4306928884392
 31
0.0
  0
LINE
  5
16CBC
330
1F
100
AcDbEntity
  8
2実線(中)
100
AcDbLine
 10
186.824266944234
 20
124.9306928884391
 30
0.0
 11
186.824266944234
 21
112.6306928884391
 31
0.0
  0
ARC
  5
16CBD
330
1F
100
AcDbEntity
  8
2実線(中)
100
AcDbCircle
 10
187.324266944234
 20
112.6306928884391
 30
0.0
 40
0.5
100
AcDbArc
 50
180.0
 51
270.0
1001
GENIUS_GENOBJ-N-FIL_13
1002
{
1000
OWNER
1000
GEN
1002
}
1001
GENIUS_GENODEF_13
1002
{
1000
HIER
1070
     0
1002
}
1002
{
1000
MANEDIT
1070
     0
1002
}
1002
{
1000
NOSEL
1070
     0
1002
}
1002
{
1000
BEHIND
1070
     0
1002
}
1002
{
1000
OTHER
1070
     0
1002
}
1002
{
1000
REACTOR
1002
}
  0
LINE
  5
16CBE
330
1F
100
AcDbEntity
  8
2実線(中)
100
AcDbLine
 10
187.324266944234
 20
112.1306928884391
 30
0.0
 11
188.824266944234
 21
112.1306928884391
 31
0.0
  0
LINE
  5
16CBF
330
1F
100
AcDbEntity
  8
2実線(中)
100
AcDbLine
 10
188.824266944234
 20
112.4306928884391
 30
0.0
 11
208.8242669442339
 21
112.4306928884391
 31
0.0
  0
LINE
  5
16CC0
330
1F
100
AcDbEntity
  8
2実線(中)
100
AcDbLine
 10
209.3242669442339
 20
112.9306928884391
 30
0.0
 11
209.324266944234
 21
124.9306928884391
 31
0.0
  0
ARC
  5
16CC1
330
1F
100
AcDbEntity
  8
2実線(中)
100
AcDbCircle
 10
208.8242669442339
 20
112.9306928884391
 30
0.0
 40
0.5
100
AcDbArc
 50
270.0
 51
0.0
1001
GENIUS_GENODEF_13
1002
{
1000
HIER
1070
     0
1002
}
1002
{
1000
MANEDIT
1070
     0
1002
}
1002
{
1000
NOSEL
1070
     0
1002
}
1002
{
1000
BEHIND
1070
     0
1002
}
1002
{
1000
OTHER
1070
     0
1002
}
1002
{
1000
REACTOR
1002
}
1001
GENIUS_GENOBJ-N-FIL_13
1002
{
1000
OWNER
1000
GEN
1002
}
  0
LINE
  5
16CC2
330
1F
100
AcDbEntity
  8
2実線(中)
100
AcDbLine
 10
183.7242669442336
 20
114.4306928884391
 30
0.0
 11
186.824266944234
 21
114.4306928884391
 31
0.0
  0
LINE
  5
16CC3
330
1F
100
AcDbEntity
  8
4破線(中)
100
AcDbLine
 10
164.324266944234
 20
124.9306928884391
 30
0.0
 11
164.324266944234
 21
120.4306928884391
 31
0.0
  0
LINE
  5
16CC4
330
1F
100
AcDbEntity
  8
4破線(中)
100
AcDbLine
 10
164.324266944234
 20
120.4306928884391
 30
0.0
 11
154.3242669442341
 21
120.4306928884391
 31
0.0
  0
LINE
  5
16CC5
330
1F
100
AcDbEntity
  8
4破線(中)
100
AcDbLine
 10
154.3242669442341
 20
120.4306928884391
 30
0.0
 11
154.3242669442341
 21
121.1806928884391
 31
0.0
  0
LINE
  5
16CC6
330
1F
100
AcDbEntity
  8
4破線(中)
100
AcDbLine
 10
154.324266944234
 20
121.1806928884391
 30
0.0
 11
149.3242669442341
 21
121.1806928884391
 31
0.0
  0
LINE
  5
16CC7
330
1F
100
AcDbEntity
  8
4破線(中)
100
AcDbLine
 10
149.3242669442341
 20
121.1806928884391
 30
0.0
 11
149.3242669442341
 21
124.9306928884391
 31
0.0
  0
LINE
  5
16CC8
330
1F
100
AcDbEntity
  8
4破線(中)
100
AcDbLine
 10
164.324266944234
 20
121.1806928884391
 30
0.0
 11
161.7289674826132
 21
123.7759923500598
 31
0.0
  0
LINE
  5
16CC9
330
1F
100
AcDbEntity
  8
4破線(中)
100
AcDbLine
 10
161.7289674826132
 20
123.7759923500598
 30
0.0
 11
161.7289674826132
 21
124.9306928884391
 31
0.0
  0
LINE
  5
16CCB
330
1F
100
AcDbEntity
  8
4破線(中)
100
AcDbLine
 10
183.3242669442336
 20
124.9306928884391
 30
0.0
 11
183.3242669442336
 21
120.4306928884391
 31
0.0
  0
LINE
  5
16CCC
330
1F
100
AcDbEntity
  8
4破線(中)
100
AcDbLine
 10
183.3242669442336
 20
120.4306928884391
 30
0.0
 11
178.3242669442335
 21
120.4306928884391
 31
0.0
  0
LINE
  5
16CD0
330
1F
100
AcDbEntity
  8
4破線(中)
100
AcDbLine
 10
183.3242669442336
 20
121.1806928884391
 30
0.0
 11
180.7289674826128
 21
123.7759923500598
 31
0.0
  0
LINE
  5
16CD1
330
1F
100
AcDbEntity
  8
4破線(中)
100
AcDbLine
 10
180.7289674826128
 20
123.7759923500598
 30
0.0
 11
180.7289674826128
 21
124.9306928884391
 31
0.0
  0
LINE
  5
16FF2
330
1F
100
AcDbEntity
  8
2実線(中)
100
AcDbLine
 10
188.824266944234
 20
112.1306928884391
 30
0.0
 11
188.824266944234
 21
124.9306928884391
 31
0.0
  0
LINE
  5
16FF3
330
1F
100
AcDbEntity
  8
2実線(中)
100
AcDbLine
 10
188.824266944234
 20
124.9306928884391
 30
0.0
 11
188.824266944234
 21
137.7306928884391
 31
0.0
  0
MTEXT
  5
1738C
330
1F
100
AcDbEntity
  8
PV0001_1
 62
     7
100
AcDbMText
 10
59.27739194423407
 20
124.9306928884391
 30
0.0
 40
0.2
 41
0.0
 71
     4
 72
     5
  1
HSK　A　63-CMZ8-120
 73
     1
 44
1.0
  0
LINE
  5
1738D
330
1F
100
AcDbEntity
  8
PV0001_1
  6
Continuous
 62
     4
 48
0.2
100
AcDbLine
 10
64.5243249276341
 20
96.93067762965213
 30
0.0
 11
64.5243249276341
 21
97.73068068141018
 31
0.0
  0
LINE
  5
1738E
330
1F
100
AcDbEntity
  8
PV0001_1
  6
Continuous
 62
     4
 48
0.2
100
AcDbLine
 10
62.12431577235406
 20
96.93065474146917
 30
0.0
 11
64.52430966884413
 21
96.93065474146917
 31
0.0
  0
LINE
  5
1738F
330
1F
100
AcDbEntity
  8
PV0001_1
  6
Continuous
 62
     4
 48
0.2
100
AcDbLine
 10
62.12433103114403
 20
96.93067762965213
 30
0.0
 11
62.12433103114403
 21
97.73068068141018
 31
0.0
  0
LINE
  5
17390
330
1F
100
AcDbEntity
  8
PV0001_1
  6
Continuous
 62
     4
 48
0.2
100
AcDbLine
 10
62.12431577235406
 20
97.73065779322614
 30
0.0
 11
62.92431882411404
 21
97.73065779322614
 31
0.0
  0
LINE
  5
17391
330
1F
100
AcDbEntity
  8
PV0001_1
  6
Continuous
 62
     4
 48
0.2
100
AcDbLine
 10
62.12431577235406
 20
100.2306577932261
 30
0.0
 11
63.92431882411404
 21
100.2306577932261
 31
0.0
  0
LINE
  5
17392
330
1F
100
AcDbEntity
  8
PV0001_1
  6
Continuous
 62
     4
 48
0.2
100
AcDbLine
 10
64.5243249276341
 20
100.8306715261371
 30
0.0
 11
64.5243249276341
 21
102.7306806814102
 31
0.0
  0
LINE
  5
17393
330
1F
100
AcDbEntity
  8
PV0001_1
  6
Continuous
 62
     4
 48
0.2
100
AcDbLine
 10
62.12433103114403
 20
100.2306806814102
 30
0.0
 11
62.12433103114403
 21
100.9306776296521
 31
0.0
  0
LINE
  5
17394
330
1F
100
AcDbEntity
  8
PV0001_1
  6
Continuous
 62
     4
 48
0.2
100
AcDbLine
 10
63.32432797938406
 20
97.83067152613714
 30
0.0
 11
63.32432797938406
 21
98.28068373316817
 31
0.0
  0
LINE
  5
17395
330
1F
100
AcDbEntity
  8
PV0001_1
  6
Continuous
 62
     4
 48
0.2
100
AcDbLine
 10
63.0243249276341
 20
97.83067152613714
 30
0.0
 11
63.0243249276341
 21
98.28176710719114
 31
0.0
  0
LINE
  5
17396
330
1F
100
AcDbEntity
  8
PV0001_1
  6
Continuous
 62
     4
 48
0.2
100
AcDbLine
 10
63.36430600673407
 20
98.36076185816816
 30
0.0
 11
64.52427915126406
 21
99.23074934596119
 31
0.0
  0
LINE
  5
17397
330
1F
100
AcDbEntity
  8
PV0001_1
  6
Continuous
 62
     4
 48
0.2
100
AcDbLine
 10
63.19465878993401
 20
99.09095594996514
 30
0.0
 11
64.52435544520404
 21
100.2306806814102
 31
0.0
  0
LINE
  5
17398
330
1F
100
AcDbEntity
  8
PV0001_1
  6
Continuous
 62
     4
 48
0.2
100
AcDbLine
 10
62.98570493251407
 20
98.36066267603914
 30
0.0
 11
62.1243005135641
 21
99.03063795680115
 31
0.0
  0
LINE
  5
17399
330
1F
100
AcDbEntity
  8
PV0001_1
  6
Continuous
 62
     4
 48
0.2
100
AcDbLine
 10
63.05887082606409
 20
99.09620497340213
 30
0.0
 11
62.12434628993401
 21
100.0307218801401
 31
0.0
  0
LINE
  5
1739A
330
1F
100
AcDbEntity
  8
PV0001_1
  6
Continuous
 62
     4
 48
0.2
100
AcDbLine
 10
64.5243249276341
 20
99.23068068141018
 30
0.0
 11
64.5243249276341
 21
100.2306806814102
 31
0.0
  0
LINE
  5
1739B
330
1F
100
AcDbEntity
  8
PV0001_1
  6
Continuous
 62
     4
 48
0.2
100
AcDbLine
 10
62.12433103114403
 20
99.03068373316816
 30
0.0
 11
62.12433103114403
 21
100.0306837331681
 31
0.0
  0
LINE
  5
1739C
330
1F
100
AcDbEntity
  8
PV0001_1
  6
Continuous
 62
     4
 48
0.2
100
AcDbLine
 10
63.42431882411403
 20
97.73065779322614
 30
0.0
 11
64.52430966884413
 21
97.73065779322614
 31
0.0
  0
LINE
  5
1739D
330
1F
100
AcDbEntity
  8
PV0001_1
  6
Continuous
 62
     4
 48
0.2
100
AcDbLine
 10
62.12431577235406
 20
103.3306486379531
 30
0.0
 11
63.92431882411404
 21
103.3306486379531
 31
0.0
  0
LINE
  5
1739E
330
1F
100
AcDbEntity
  8
PV0001_1
  6
Continuous
 62
     4
 48
0.2
100
AcDbLine
 10
62.12431577235406
 20
100.9306547414691
 30
0.0
 11
63.8243127205941
 21
100.9306547414691
 31
0.0
  0
LINE
  5
1739F
330
1F
100
AcDbEntity
  8
PV0001_1
  6
Continuous
 62
     4
 48
0.2
100
AcDbLine
 10
62.12431577235406
 20
102.6306516897112
 30
0.0
 11
63.8243127205941
 21
102.6306516897112
 31
0.0
  0
LINE
  5
173A0
330
1F
100
AcDbEntity
  8
PV0001_1
  6
Continuous
 62
     4
 48
0.2
100
AcDbLine
 10
64.12433103114404
 20
101.2306806814102
 30
0.0
 11
64.12433103114404
 21
102.3306715261371
 31
0.0
  0
LINE
  5
173A1
330
1F
100
AcDbEntity
  8
PV0001_1
  6
Continuous
 62
     4
 48
0.2
100
AcDbLine
 10
62.12433103114403
 20
102.6306745778941
 30
0.0
 11
62.12433103114403
 21
103.3306715261371
 31
0.0
  0
LINE
  5
173A2
330
1F
100
AcDbEntity
  8
PV0001_1
  6
Continuous
 62
     4
 48
0.2
100
AcDbLine
 10
62.12433103114403
 20
103.5806715261371
 30
0.0
 11
62.12433103114403
 21
105.9306776296492
 31
0.0
  0
LINE
  5
173A3
330
1F
100
AcDbEntity
  8
PV0001_1
  6
Continuous
 62
     4
 48
0.2
100
AcDbLine
 10
64.5243249276341
 20
103.5806715261371
 30
0.0
 11
64.5243249276341
 21
104.3806745778941
 31
0.0
  0
LINE
  5
173A4
330
1F
100
AcDbEntity
  8
PV0001_1
  6
Continuous
 62
     4
 48
0.2
100
AcDbLine
 10
62.12431577235406
 20
103.5806486379531
 30
0.0
 11
64.52430966884413
 21
103.5806486379531
 31
0.0
  0
LINE
  5
173A5
330
1F
100
AcDbEntity
  8
PV0001_1
  6
Continuous
 62
     4
 48
0.2
100
AcDbLine
 10
62.72432187587401
 20
105.8306486379491
 30
0.0
 11
63.07431272059409
 21
105.8306486379491
 31
0.0
  0
LINE
  5
173A6
330
1F
100
AcDbEntity
  8
PV0001_1
  6
Continuous
 62
     4
 48
0.2
100
AcDbLine
 10
62.52430966884412
 20
104.3806516897112
 30
0.0
 11
63.27430966884413
 21
104.3806516897112
 31
0.0
  0
LINE
  5
173A7
330
1F
100
AcDbEntity
  8
PV0001_1
  6
Continuous
 62
     4
 48
0.2
100
AcDbLine
 10
63.72432187587401
 20
104.5806715261371
 30
0.0
 11
63.72432187587401
 21
105.5306837331591
 31
0.0
  0
LINE
  5
173A8
330
1F
100
AcDbEntity
  8
PV0001_1
  6
Continuous
 62
     4
 48
0.2
100
AcDbLine
 10
62.42433408290413
 20
104.4806806814102
 30
0.0
 11
62.42433408290413
 21
105.5306837331591
 31
0.0
  0
LINE
  5
173A9
330
1F
100
AcDbEntity
  8
PV0001_1
  6
Continuous
 62
     4
 48
0.2
100
AcDbLine
 10
63.37433103114403
 20
104.4806806814102
 30
0.0
 11
63.37433103114403
 21
105.5306837331591
 31
0.0
  0
LINE
  5
173AA
330
1F
100
AcDbEntity
  8
PV0001_1
  6
Continuous
 62
     4
 48
0.2
100
AcDbLine
 10
64.5243249276341
 20
105.8306715261291
 30
0.0
 11
64.5243249276341
 21
106.6806776296492
 31
0.0
  0
LINE
  5
173AB
330
1F
100
AcDbEntity
  8
PV0001_1
  6
Continuous
 62
     4
 48
0.2
100
AcDbLine
 10
63.92431882411404
 20
104.3806516897112
 30
0.0
 11
64.52430966884413
 21
104.3806516897112
 31
0.0
  0
LINE
  5
173AC
330
1F
100
AcDbEntity
  8
PV0001_1
  6
Continuous
 62
     4
 48
0.2
100
AcDbLine
 10
64.5243249276341
 20
107.5306837331591
 30
0.0
 11
64.5243249276341
 21
109.4306776296491
 31
0.0
  0
LINE
  5
173AD
330
1F
100
AcDbEntity
  8
PV0001_1
  6
Continuous
 62
     4
 48
0.2
100
AcDbLine
 10
62.42433408290413
 20
108.0306837331591
 30
0.0
 11
62.42433408290413
 21
108.1961195241792
 31
0.0
  0
LINE
  5
173AE
330
1F
100
AcDbEntity
  8
PV0001_1
  6
Continuous
 62
     4
 48
0.2
100
AcDbLine
 10
62.12433103114403
 20
107.5306837331591
 30
0.0
 11
62.12433103114403
 21
108.1961195241792
 31
0.0
  0
LINE
  5
173AF
330
1F
100
AcDbEntity
  8
PV0001_1
  6
Continuous
 62
     4
 48
0.2
100
AcDbLine
 10
64.02430966884413
 20
105.8306486379491
 30
0.0
 11
64.52430966884413
 21
105.8306486379491
 31
0.0
  0
LINE
  5
173B0
330
1F
100
AcDbEntity
  8
PV0001_1
  6
Continuous
 62
     4
 48
0.2
100
AcDbLine
 10
62.82431272059409
 20
106.8306486379491
 30
0.0
 11
63.8243127205941
 21
106.8306486379491
 31
0.0
  0
LINE
  5
173B1
330
1F
100
AcDbEntity
  8
PV0001_1
  6
Continuous
 62
     4
 48
0.2
100
AcDbLine
 10
62.82431272059409
 20
110.1306516897091
 30
0.0
 11
63.8243127205941
 21
110.1306516897091
 31
0.0
  0
LINE
  5
173B2
330
1F
100
AcDbEntity
  8
PV0001_1
  6
Continuous
 62
     4
 48
0.2
100
AcDbLine
 10
64.5243249276341
 20
110.3275129567991
 30
0.0
 11
64.5243249276341
 21
112.8306715261291
 31
0.0
  0
LINE
  5
173B3
330
1F
100
AcDbEntity
  8
PV0001_1
  6
Continuous
 62
     4
 48
0.2
100
AcDbLine
 10
62.42433408290413
 20
111.2306806814091
 30
0.0
 11
62.42433408290413
 21
111.6555616628491
 31
0.0
  0
LINE
  5
173B4
330
1F
100
AcDbEntity
  8
PV0001_1
  6
Continuous
 62
     4
 48
0.2
100
AcDbLine
 10
62.12433103114403
 20
110.3306715261291
 30
0.0
 11
62.12433103114403
 21
111.6555616628491
 31
0.0
  0
LINE
  5
173B5
330
1F
100
AcDbEntity
  8
PV0001_1
  6
Continuous
 62
     4
 48
0.2
100
AcDbLine
 10
64.12433103114404
 20
108.0306837331591
 30
0.0
 11
64.12433103114404
 21
108.9306776296492
 31
0.0
  0
LINE
  5
173B6
330
1F
100
AcDbEntity
  8
PV0001_1
  6
Continuous
 62
     4
 48
0.2
100
AcDbLine
 10
62.82431272059409
 20
107.6306516897091
 30
0.0
 11
63.72432187587401
 21
107.6306516897091
 31
0.0
  0
LINE
  5
173B7
330
1F
100
AcDbEntity
  8
PV0001_1
  6
Continuous
 62
     4
 48
0.2
100
AcDbLine
 10
62.82431272059409
 20
109.3306486379491
 30
0.0
 11
63.72432187587401
 21
109.3306486379491
 31
0.0
  0
LINE
  5
173B8
330
1F
100
AcDbEntity
  8
PV0001_1
  6
Continuous
 62
     4
 48
0.2
100
AcDbLine
 10
62.82431272059409
 20
113.5306608449791
 30
0.0
 11
63.8243127205941
 21
113.5306608449791
 31
0.0
  0
LINE
  5
173B9
330
1F
100
AcDbEntity
  8
PV0001_1
  6
Continuous
 62
     4
 48
0.2
100
AcDbLine
 10
62.12431577235406
 20
110.3306486379491
 30
0.0
 11
64.52430966884413
 21
110.3306486379491
 31
0.0
  0
LINE
  5
173BA
330
1F
100
AcDbEntity
  8
PV0001_1
  6
Continuous
 62
     4
 48
0.2
100
AcDbLine
 10
62.52430966884412
 20
111.1306516897091
 30
0.0
 11
64.02430966884413
 21
111.1306516897091
 31
0.0
  0
LINE
  5
173BB
330
1F
100
AcDbEntity
  8
PV0001_1
  6
Continuous
 62
     4
 48
0.2
100
AcDbLine
 10
62.82431272059409
 20
112.7306577932192
 30
0.0
 11
63.72432187587401
 21
112.7306577932192
 31
0.0
  0
LINE
  5
173BC
330
1F
100
AcDbEntity
  8
PV0001_1
  6
Continuous
 62
     4
 48
0.2
100
AcDbLine
 10
64.12433103114404
 20
111.2306806814091
 30
0.0
 11
64.12433103114404
 21
112.3306715261291
 31
0.0
  0
LINE
  5
173BD
330
1F
100
AcDbEntity
  8
PV0001_1
  6
Continuous
 62
     4
 48
0.2
100
AcDbLine
 10
64.5243249276341
 20
113.5306837331591
 30
0.0
 11
64.5243249276341
 21
114.3306715261291
 31
0.0
  0
LINE
  5
173BE
330
1F
100
AcDbEntity
  8
PV0001_1
  6
Continuous
 62
     4
 48
0.2
100
AcDbLine
 10
62.42433408290413
 20
115.1027509939091
 30
0.0
 11
62.42433408290413
 21
115.5586073171491
 31
0.0
  0
LINE
  5
173BF
330
1F
100
AcDbEntity
  8
PV0001_1
  6
Continuous
 62
     4
 48
0.2
100
AcDbLine
 10
62.12433103114403
 20
114.5306837331591
 30
0.0
 11
62.12433103114403
 21
116.1306745778891
 31
0.0
  0
LINE
  5
173C0
330
1F
100
AcDbEntity
  8
PV0001_1
  6
Continuous
 62
     4
 48
0.2
100
AcDbLine
 10
64.02432492763409
 20
114.5694257985891
 30
0.0
 11
64.02432492763409
 21
115.2564832937092
 31
0.0
  0
LINE
  5
173C1
330
1F
100
AcDbEntity
  8
PV0001_1
  6
Continuous
 62
     4
 48
0.2
100
AcDbLine
 10
63.62433103114404
 20
114.7694227468392
 30
0.0
 11
63.62433103114404
 21
115.2564832937092
 31
0.0
  0
LINE
  5
173C2
330
1F
100
AcDbEntity
  8
PV0001_1
  6
Continuous
 62
     4
 48
0.2
100
AcDbLine
 10
64.52437070399401
 20
114.3308012258391
 30
0.0
 11
64.09274533778409
 21
114.4746763479092
 31
0.0
  0
LINE
  5
173C3
330
1F
100
AcDbEntity
  8
PV0001_1
  6
Continuous
 62
     4
 48
0.2
100
AcDbLine
 10
62.49260190517407
 20
115.6535627614792
 30
0.0
 11
63.49260190517407
 21
115.9868986379491
 31
0.0
  0
LINE
  5
173C4
330
1F
100
AcDbEntity
  8
PV0001_1
  6
Continuous
 62
     4
 48
0.2
100
AcDbLine
 10
62.12433103114403
 20
114.5306303273991
 30
0.0
 11
64.52434018642406
 21
113.5306303273991
 31
0.0
  0
LINE
  5
173C5
330
1F
100
AcDbEntity
  8
PV0001_1
  6
Continuous
 62
     4
 48
0.2
100
AcDbLine
 10
62.12433103114403
 20
116.1306211721292
 30
0.0
 11
64.5243249276341
 21
117.1306211721292
 31
0.0
  0
LINE
  5
173C6
330
1F
100
AcDbEntity
  8
PV0001_1
  6
Continuous
 62
     4
 48
0.2
100
AcDbLine
 10
63.49273923427404
 20
114.6746732961491
 30
0.0
 11
62.49273923427404
 21
115.0080091726191
 31
0.0
  0
LINE
  5
173C7
330
1F
100
AcDbEntity
  8
PV0001_1
  6
Continuous
 62
     4
 48
0.2
100
AcDbLine
 10
64.09260800868401
 20
116.1869032155891
 30
0.0
 11
64.52423337489403
 21
116.3307783376591
 31
0.0
  0
LINE
  5
173C8
330
1F
100
AcDbEntity
  8
PV0001_1
  6
Continuous
 62
     4
 48
0.2
100
AcDbLine
 10
64.5243249276341
 20
116.3306715261291
 30
0.0
 11
64.5243249276341
 21
117.1306745778891
 31
0.0
  0
LINE
  5
173C9
330
1F
100
AcDbEntity
  8
PV0001_1
  6
Continuous
 62
     4
 48
0.2
100
AcDbLine
 10
62.12433103114403
 20
108.2061140310191
 30
0.0
 11
62.12433103114403
 21
109.4306776296491
 31
0.0
  0
LINE
  5
173CA
330
1F
100
AcDbEntity
  8
PV0001_1
  6
Continuous
 62
     4
 48
0.2
100
AcDbLine
 10
62.42433408290413
 20
108.2061140310191
 30
0.0
 11
62.42433408290413
 21
108.9306776296492
 31
0.0
  0
LINE
  5
173CB
330
1F
100
AcDbEntity
  8
PV0001_1
  6
Continuous
 62
     4
 48
0.2
100
AcDbLine
 10
62.12433103114403
 20
111.6655714284791
 30
0.0
 11
62.12433103114403
 21
112.8306715261291
 31
0.0
  0
LINE
  5
173CC
330
1F
100
AcDbEntity
  8
PV0001_1
  6
Continuous
 62
     4
 48
0.2
100
AcDbLine
 10
62.42433408290413
 20
111.6655714284791
 30
0.0
 11
62.42433408290413
 21
112.3306715261291
 31
0.0
  0
LINE
  5
173CD
330
1F
100
AcDbEntity
  8
PV0001_1
  6
Continuous
 62
     4
 48
0.2
100
AcDbLine
 10
63.62433103114404
 20
115.2664778005492
 30
0.0
 11
63.62433103114404
 21
115.8919355642191
 31
0.0
  0
LINE
  5
173CE
330
1F
100
AcDbEntity
  8
PV0001_1
  6
Continuous
 62
     4
 48
0.2
100
AcDbLine
 10
64.02432492763409
 20
115.2664778005492
 30
0.0
 11
64.02432492763409
 21
116.0919325124591
 31
0.0
  0
LINE
  5
173CF
330
1F
100
AcDbEntity
  8
PV0001_1
  6
Continuous
 62
     4
100
AcDbLine
 10
59.32426694423407
 20
124.9306928884391
 30
0.0
 11
59.32426694423407
 21
93.43069288844114
 31
0.0
  0
LINE
  5
173D0
330
1F
100
AcDbEntity
  8
PV0001_1
  6
Continuous
 62
     4
 48
0.2
100
AcDbLine
 10
64.32426694423407
 20
124.9306928884391
 30
0.0
 11
64.32426694423407
 21
123.9306928884391
 31
0.0
  0
LINE
  5
173D1
330
1F
100
AcDbEntity
  8
PV0001_1
  6
Continuous
 62
     4
100
AcDbLine
 10
72.32426694423407
 20
115.9306928884391
 30
0.0
 11
85.32426694423406
 21
115.9306928884391
 31
0.0
  0
LINE
  5
173D7
330
1F
100
AcDbEntity
  8
PV0001_1
  6
Continuous
 62
     4
100
AcDbLine
 10
69.32426694423407
 20
141.9306928884392
 30
0.0
 11
69.32426694423407
 21
124.9306928884391
 31
0.0
  0
LINE
  5
173D8
330
1F
100
AcDbEntity
  8
PV0001_1
  6
Continuous
 62
     4
100
AcDbLine
 10
59.32426694423407
 20
141.9306928884392
 30
0.0
 11
69.32426694423407
 21
141.9306928884392
 31
0.0
  0
LINE
  5
173D9
330
1F
100
AcDbEntity
  8
PV0001_1
  6
Continuous
 62
     4
100
AcDbLine
 10
59.32426694423407
 20
144.9306928884392
 30
0.0
 11
59.32426694423407
 21
124.9306928884391
 31
0.0
  0
LINE
  5
173DA
330
1F
100
AcDbEntity
  8
PV0001_1
  6
Continuous
 62
     4
100
AcDbLine
 10
42.06031775180295
 20
144.9306928884392
 30
0.0
 11
59.32426694423407
 21
144.9306928884392
 31
0.0
  0
LINE
  5
173DE
330
1F
100
AcDbEntity
  8
PV0001_1
  6
Continuous
 62
     4
100
AcDbLine
 10
85.32426694423406
 20
93.43069288844114
 30
0.0
 11
85.32426694423406
 21
124.9306928884391
 31
0.0
  0
LINE
  5
173DF
330
1F
100
AcDbEntity
  8
PV0001_1
  6
Continuous
 62
     4
100
AcDbLine
 10
81.32426694423406
 20
133.9306928884391
 30
0.0
 11
81.32426694423406
 21
124.9306928884391
 31
0.0
  0
LINE
  5
173E0
330
1F
100
AcDbEntity
  8
7二点鎖線(細)
  6
kuroda_nitensasen1
 48
0.2
100
AcDbLine
 10
44.82426694423407
 20
130.1268453111458
 30
0.0
 11
44.82426694423407
 21
124.9306928884391
 31
0.0
  0
LINE
  5
173E1
330
1F
100
AcDbEntity
  8
7二点鎖線(細)
  6
kuroda_nitensasen1
 48
0.2
100
AcDbLine
 10
70.32426694423406
 20
133.9306928884391
 30
0.0
 11
70.32426694423406
 21
124.9306928884391
 31
0.0
  0
LINE
  5
173E2
330
1F
100
AcDbEntity
  8
7二点鎖線(細)
  6
kuroda_nitensasen1
100
AcDbLine
 10
47.82426694423406
 20
130.9306928884391
 30
0.0
 11
70.32426694423406
 21
130.9306928884391
 31
0.0
  0
ARC
  5
173E3
330
1F
100
AcDbEntity
  8
PV0001_1
  6
Continuous
 62
     4
 48
0.2
100
AcDbCircle
 10
63.12954953700409
 20
99.16685316676215
 30
0.0
 40
0.1000000014901
100
AcDbArc
 50
225.0000679602649
 51
310.6012852052867
  0
ARC
  5
173E4
330
1F
100
AcDbEntity
  8
PV0001_1
  6
Continuous
 62
     4
 48
0.2
100
AcDbCircle
 10
62.92431882411404
 20
98.28175184840214
 30
0.0
 40
0.1000000014901
100
AcDbArc
 50
0.00001366037834
 51
52.12499163211512
  0
ARC
  5
173E5
330
1F
100
AcDbEntity
  8
PV0001_1
  6
Continuous
 62
     4
 48
0.2
100
AcDbCircle
 10
63.42431882411403
 20
98.28066847437916
 30
0.0
 40
0.1000000014901
100
AcDbArc
 50
126.8699032291533
 51
179.9999776882002
  0
ARC
  5
173E6
330
1F
100
AcDbEntity
  8
PV0001_1
  6
Continuous
 62
     4
 48
0.2
100
AcDbCircle
 10
62.92431882411404
 20
97.83065626734718
 30
0.0
 40
0.1000000014901
100
AcDbArc
 50
269.9999770049508
 51
0.00001366037834
  0
ARC
  5
173E7
330
1F
100
AcDbEntity
  8
PV0001_1
  6
Continuous
 62
     4
 48
0.2
100
AcDbCircle
 10
63.42431882411403
 20
97.83065626734718
 30
0.0
 40
0.1000000014901
100
AcDbArc
 50
179.9999776882002
 51
269.9999460417362
  0
ARC
  5
173E8
330
1F
100
AcDbEntity
  8
PV0001_1
  6
Continuous
 62
     4
 48
0.2
100
AcDbCircle
 10
63.92431882411404
 20
100.8306562673471
 30
0.0
 40
0.6000000238419
100
AcDbArc
 50
269.9999770049508
 51
0.00001366037834
  0
ARC
  5
173E9
330
1F
100
AcDbEntity
  8
PV0001_1
  6
Continuous
 62
     4
 48
0.2
100
AcDbCircle
 10
63.92431882411404
 20
102.7306654226211
 30
0.0
 40
0.6000000238419
100
AcDbArc
 50
0.00001366037834
 51
89.99999567428604
  0
ARC
  5
173EA
330
1F
100
AcDbEntity
  8
PV0001_1
  6
Continuous
 62
     4
 48
0.2
100
AcDbCircle
 10
63.8243127205941
 20
102.3306562673471
 30
0.0
 40
0.3000000119209
100
AcDbArc
 50
0.00001366037834
 51
89.99999567428604
  0
ARC
  5
173EB
330
1F
100
AcDbEntity
  8
PV0001_1
  6
Continuous
 62
     4
 48
0.2
100
AcDbCircle
 10
63.8243127205941
 20
101.2306654226212
 30
0.0
 40
0.3000000119209
100
AcDbArc
 50
269.9999770049508
 51
0.00001366037834
  0
ARC
  5
173EC
330
1F
100
AcDbEntity
  8
PV0001_1
  6
Continuous
 62
     4
 48
0.2
100
AcDbCircle
 10
64.5243249276341
 20
105.6806623708591
 30
0.0
 40
1.0
100
AcDbArc
 50
89.99999567428604
 51
144.4267269057514
  0
ARC
  5
173ED
330
1F
100
AcDbEntity
  8
PV0001_1
  6
Continuous
 62
     4
 48
0.2
100
AcDbCircle
 10
62.87431577235406
 20
105.9306623708591
 30
0.0
 40
0.75
100
AcDbArc
 50
89.99999567428604
 51
179.9999776882002
  0
ARC
  5
173EE
330
1F
100
AcDbEntity
  8
PV0001_1
  6
Continuous
 62
     4
 48
0.2
100
AcDbCircle
 10
62.87431577235406
 20
105.9306623708591
 30
0.0
 40
0.75
100
AcDbArc
 50
27.30498577326364
 51
89.99999567428604
  0
ARC
  5
173EF
330
1F
100
AcDbEntity
  8
PV0001_1
  6
Continuous
 62
     4
 48
0.2
100
AcDbCircle
 10
63.92431882411404
 20
104.5806562673471
 30
0.0
 40
0.2000000029802
100
AcDbArc
 50
179.9999776882002
 51
269.9999460417362
  0
ARC
  5
173F0
330
1F
100
AcDbEntity
  8
PV0001_1
  6
Continuous
 62
     4
 48
0.2
100
AcDbCircle
 10
64.02432492763409
 20
105.5306684743791
 30
0.0
 40
0.3000000119209
100
AcDbArc
 50
89.99999567428604
 51
179.9999776882002
  0
ARC
  5
173F1
330
1F
100
AcDbEntity
  8
PV0001_1
  6
Continuous
 62
     4
 48
0.2
100
AcDbCircle
 10
63.62961057216409
 20
106.3205854665591
 30
0.0
 40
0.1000000014901
100
AcDbArc
 50
207.3049602737338
 51
324.426735557172
  0
ARC
  5
173F2
330
1F
100
AcDbEntity
  8
PV0001_1
  6
Continuous
 62
     4
 48
0.2
100
AcDbCircle
 10
62.5243249276341
 20
104.4806654226211
 30
0.0
 40
0.1000000014901
100
AcDbArc
 50
179.9999776882002
 51
269.9999460417362
  0
ARC
  5
173F3
330
1F
100
AcDbEntity
  8
PV0001_1
  6
Continuous
 62
     4
 48
0.2
100
AcDbCircle
 10
63.2743249276341
 20
104.4806654226211
 30
0.0
 40
0.1000000014901
100
AcDbArc
 50
269.9999770049508
 51
0.00001366037834
  0
ARC
  5
173F4
330
1F
100
AcDbEntity
  8
PV0001_1
  6
Continuous
 62
     4
 48
0.2
100
AcDbCircle
 10
63.07431272059409
 20
105.5306684743791
 30
0.0
 40
0.3000000119209
100
AcDbArc
 50
0.00001366037834
 51
89.99999567428604
  0
ARC
  5
173F5
330
1F
100
AcDbEntity
  8
PV0001_1
  6
Continuous
 62
     4
 48
0.2
100
AcDbCircle
 10
62.72432187587401
 20
105.5306684743791
 30
0.0
 40
0.3000000119209
100
AcDbArc
 50
89.99999567428604
 51
179.9999776882002
  0
ARC
  5
173F6
330
1F
100
AcDbEntity
  8
PV0001_1
  6
Continuous
 62
     4
 48
0.2
100
AcDbCircle
 10
63.8243127205941
 20
107.5306684743791
 30
0.0
 40
0.6999999880791
100
AcDbArc
 50
269.9999770049508
 51
0.00001366037834
  0
ARC
  5
173F7
330
1F
100
AcDbEntity
  8
PV0001_1
  6
Continuous
 62
     4
 48
0.2
100
AcDbCircle
 10
63.8243127205941
 20
109.4306623708591
 30
0.0
 40
0.6999999880791
100
AcDbArc
 50
0.00001366037834
 51
89.99999567428604
  0
ARC
  5
173F8
330
1F
100
AcDbEntity
  8
PV0001_1
  6
Continuous
 62
     4
 48
0.2
100
AcDbCircle
 10
62.82431272059409
 20
109.4306623708591
 30
0.0
 40
0.6999999880791
100
AcDbArc
 50
89.99999567428604
 51
179.9999776882002
  0
ARC
  5
173F9
330
1F
100
AcDbEntity
  8
PV0001_1
  6
Continuous
 62
     4
 48
0.2
100
AcDbCircle
 10
62.82431272059409
 20
107.5306684743791
 30
0.0
 40
0.6999999880791
100
AcDbArc
 50
179.9999776882002
 51
269.9999460417362
  0
ARC
  5
173FA
330
1F
100
AcDbEntity
  8
PV0001_1
  6
Continuous
 62
     4
 48
0.2
100
AcDbCircle
 10
62.82431272059409
 20
108.0306684743791
 30
0.0
 40
0.4000000059605
100
AcDbArc
 50
179.9999776882002
 51
269.9999460417362
  0
ARC
  5
173FB
330
1F
100
AcDbEntity
  8
PV0001_1
  6
Continuous
 62
     4
 48
0.2
100
AcDbCircle
 10
63.72432187587401
 20
108.0306684743791
 30
0.0
 40
0.4000000059605
100
AcDbArc
 50
269.9999770049508
 51
0.00001366037834
  0
ARC
  5
173FC
330
1F
100
AcDbEntity
  8
PV0001_1
  6
Continuous
 62
     4
 48
0.2
100
AcDbCircle
 10
63.72432187587401
 20
108.9306623708591
 30
0.0
 40
0.4000000059605
100
AcDbArc
 50
0.00001366037834
 51
89.99999567428604
  0
ARC
  5
173FD
330
1F
100
AcDbEntity
  8
PV0001_1
  6
Continuous
 62
     4
 48
0.2
100
AcDbCircle
 10
62.82431272059409
 20
108.9306623708591
 30
0.0
 40
0.4000000059605
100
AcDbArc
 50
89.99999567428604
 51
179.9999776882002
  0
ARC
  5
173FE
330
1F
100
AcDbEntity
  8
PV0001_1
  6
Continuous
 62
     4
 48
0.2
100
AcDbCircle
 10
62.5243249276341
 20
111.2306654226192
 30
0.0
 40
0.1000000014901
100
AcDbArc
 50
179.9999776882002
 51
269.9999460417362
  0
ARC
  5
173FF
330
1F
100
AcDbEntity
  8
PV0001_1
  6
Continuous
 62
     4
 48
0.2
100
AcDbCircle
 10
64.02432492763409
 20
111.2306654226192
 30
0.0
 40
0.1000000014901
100
AcDbArc
 50
269.9999770049508
 51
0.00001366037834
  0
ARC
  5
17400
330
1F
100
AcDbEntity
  8
PV0001_1
  6
Continuous
 62
     4
 48
0.2
100
AcDbCircle
 10
63.72432187587401
 20
112.3306562673391
 30
0.0
 40
0.4000000059605
100
AcDbArc
 50
0.00001366037834
 51
89.99999567428604
  0
ARC
  5
17401
330
1F
100
AcDbEntity
  8
PV0001_1
  6
Continuous
 62
     4
 48
0.2
100
AcDbCircle
 10
62.82431272059409
 20
112.3306562673391
 30
0.0
 40
0.4000000059605
100
AcDbArc
 50
89.99999567428604
 51
179.9999776882002
  0
ARC
  5
17402
330
1F
100
AcDbEntity
  8
PV0001_1
  6
Continuous
 62
     4
 48
0.2
100
AcDbCircle
 10
63.8243127205941
 20
112.8306562673391
 30
0.0
 40
0.6999999880791
100
AcDbArc
 50
0.00001366037834
 51
89.99999567428604
  0
ARC
  5
17403
330
1F
100
AcDbEntity
  8
PV0001_1
  6
Continuous
 62
     4
 48
0.2
100
AcDbCircle
 10
62.82431272059409
 20
112.8306562673391
 30
0.0
 40
0.6999999880791
100
AcDbArc
 50
89.99999567428604
 51
179.9999776882002
  0
ARC
  5
17404
330
1F
100
AcDbEntity
  8
PV0001_1
  6
Continuous
 62
     4
 48
0.2
100
AcDbCircle
 10
63.52432492763409
 20
114.7694074880492
 30
0.0
 40
0.1000000014901
100
AcDbArc
 50
251.5650642086567
 51
0.0
  0
ARC
  5
17405
330
1F
100
AcDbEntity
  8
PV0001_1
  6
Continuous
 62
     4
 48
0.2
100
AcDbCircle
 10
63.52432492763409
 20
115.8919203054292
 30
0.0
 40
0.1000000014901
100
AcDbArc
 50
0.00001366037834
 51
108.4348743196416
  0
ARC
  5
17406
330
1F
100
AcDbEntity
  8
PV0001_1
  6
Continuous
 62
     4
 48
0.2
100
AcDbCircle
 10
62.5243249276341
 20
115.1027357351191
 30
0.0
 40
0.1000000014901
100
AcDbArc
 50
179.9999776882002
 51
251.5651288680858
  0
ARC
  5
17407
330
1F
100
AcDbEntity
  8
PV0001_1
  6
Continuous
 62
     4
 48
0.2
100
AcDbCircle
 10
62.5243249276341
 20
115.5585920583592
 30
0.0
 40
0.1000000014901
100
AcDbArc
 50
108.4350450743717
 51
179.9999776882002
  0
ARC
  5
17408
330
1F
100
AcDbEntity
  8
PV0001_1
  6
Continuous
 62
     4
 48
0.2
100
AcDbCircle
 10
64.12431577235406
 20
114.5694105397992
 30
0.0
 40
0.1000000014901
100
AcDbArc
 50
179.9999776882002
 51
251.5649922643004
  0
ARC
  5
17409
330
1F
100
AcDbEntity
  8
PV0001_1
  6
Continuous
 62
     4
 48
0.2
100
AcDbCircle
 10
64.12431577235406
 20
116.0919172536692
 30
0.0
 40
0.1000000014901
100
AcDbArc
 50
108.4348743196416
 51
179.9999776882002
  0
ARC
  5
1740A
330
1F
100
AcDbEntity
  8
PV0001_1
  6
Continuous
 62
     4
100
AcDbCircle
 10
72.32426694423407
 20
123.9306928884391
 30
0.0
 40
8.0
100
AcDbArc
 50
179.9999776882002
 51
270.0000280039997
  0
LINE
  5
1740B
330
1F
100
AcDbEntity
  8
PV0001_1
  6
Continuous
 62
     4
 48
0.2
100
AcDbLine
 10
75.44926694423407
 20
152.4306928884371
 30
0.0
 11
79.19926694423407
 21
152.4306928884371
 31
0.0
  0
LINE
  5
1740C
330
1F
100
AcDbEntity
  8
PV0001_1
  6
Continuous
 62
     4
100
AcDbLine
 10
59.32426694423407
 20
156.4306928884371
 30
0.0
 11
73.94676786947592
 21
156.4306928884371
 31
0.0
  0
LINE
  5
1740D
330
1F
100
AcDbEntity
  8
PV0001_1
  6
Continuous
 62
     4
 48
0.2
100
AcDbLine
 10
80.70176601899218
 20
156.4306928884371
 30
0.0
 11
85.32426694423406
 21
156.4306928884371
 31
0.0
  0
LINE
  5
1740E
330
1F
100
AcDbEntity
  8
2実線(中)
100
AcDbLine
 10
59.32426694423407
 20
156.4306928884371
 30
0.0
 11
59.32426694423408
 21
149.1212098952419
 31
0.0
  0
LINE
  5
1740F
330
1F
100
AcDbEntity
  8
2実線(中)
100
AcDbLine
 10
75.44926694423408
 20
153.8282881526308
 30
0.0
 11
75.44926694423407
 21
152.4306928884371
 31
0.0
  0
LINE
  5
17410
330
1F
100
AcDbEntity
  8
2実線(中)
100
AcDbLine
 10
79.19926694423407
 20
153.8282881526307
 30
0.0
 11
79.19926694423407
 21
152.4306928884371
 31
0.0
  0
LINE
  5
17411
330
1F
100
AcDbEntity
  8
2実線(中)
100
AcDbLine
 10
85.32426694423406
 20
156.4306928884371
 30
0.0
 11
85.32426694423433
 21
142.430692888439
 31
0.0
  0
LINE
  5
17412
330
1F
100
AcDbEntity
  8
2実線(中)
100
AcDbLine
 10
40.32826694423407
 20
141.9306928884392
 30
0.0
 11
42.06031775180295
 21
144.9306928884392
 31
0.0
  0
LINE
  5
17413
330
1F
100
AcDbEntity
  8
2実線(中)
100
AcDbLine
 10
42.06031775180295
 20
144.9306928884392
 30
0.0
 11
42.06031775180295
 21
124.9306928884391
 31
0.0
  0
LINE
  5
17414
330
1F
100
AcDbEntity
  8
2実線(中)
100
AcDbLine
 10
40.32826694423407
 20
141.9306928884392
 30
0.0
 11
40.32826694423408
 21
124.9306928884391
 31
0.0
  0
LINE
  5
17415
330
1F
100
AcDbEntity
  8
2実線(中)
100
AcDbLine
 10
73.94676786947592
 20
156.4306928884371
 30
0.0
 11
75.44926694423407
 21
153.8282881526308
 31
0.0
  0
LINE
  5
17416
330
1F
100
AcDbEntity
  8
2実線(中)
100
AcDbLine
 10
80.70176601899218
 20
156.4306928884371
 30
0.0
 11
79.19926694423407
 21
153.8282881526307
 31
0.0
  0
LINE
  5
17417
330
1F
100
AcDbEntity
  8
PV0001_1
  6
Continuous
 62
     4
 48
0.2
100
AcDbLine
 10
75.44926694423407
 20
97.4306928884412
 30
0.0
 11
79.19926694423407
 21
97.4306928884412
 31
0.0
  0
LINE
  5
17418
330
1F
100
AcDbEntity
  8
PV0001_1
  6
Continuous
 62
     4
100
AcDbLine
 10
59.32426694423407
 20
93.4306928884412
 30
0.0
 11
73.94676786947592
 21
93.43069288844118
 31
0.0
  0
LINE
  5
17419
330
1F
100
AcDbEntity
  8
PV0001_1
  6
Continuous
 62
     4
 48
0.2
100
AcDbLine
 10
80.70176601899218
 20
93.4306928884412
 30
0.0
 11
85.32426694423406
 21
93.4306928884412
 31
0.0
  0
LINE
  5
1741A
330
1F
100
AcDbEntity
  8
2実線(中)
100
AcDbLine
 10
75.44926694423408
 20
96.03309762424752
 30
0.0
 11
75.44926694423388
 21
115.9306928884391
 31
0.0
  0
LINE
  5
1741B
330
1F
100
AcDbEntity
  8
2実線(中)
100
AcDbLine
 10
79.19926694423407
 20
96.03309762424755
 30
0.0
 11
79.19926694423407
 21
115.9306928884391
 31
0.0
  0
LINE
  5
1741C
330
1F
100
AcDbEntity
  8
2実線(中)
100
AcDbLine
 10
73.94676786947592
 20
93.43069288844118
 30
0.0
 11
75.44926694423407
 21
96.03309762424752
 31
0.0
  0
LINE
  5
1741D
330
1F
100
AcDbEntity
  8
2実線(中)
100
AcDbLine
 10
80.70176601899218
 20
93.4306928884412
 30
0.0
 11
79.19926694423407
 21
96.03309762424755
 31
0.0
  0
LINE
  5
1741E
330
1F
100
AcDbEntity
  8
2実線(中)
100
AcDbLine
 10
73.94676786947592
 20
93.43069288844118
 30
0.0
 11
73.94676786947592
 21
115.9306928884391
 31
0.0
  0
LINE
  5
1741F
330
1F
100
AcDbEntity
  8
2実線(中)
100
AcDbLine
 10
80.70176601899218
 20
93.4306928884412
 30
0.0
 11
80.70176601899218
 21
115.9306928884391
 31
0.0
  0
LINE
  5
17421
330
1F
100
AcDbEntity
  8
2実線(中)
100
AcDbLine
 10
56.82426694423408
 20
149.1212098952419
 30
0.0
 11
59.32426694423408
 21
149.1212098952419
 31
0.0
  0
LINE
  5
17423
330
1F
100
AcDbEntity
  8
2実線(中)
100
AcDbLine
 10
56.82426694423408
 20
100.7401758816364
 30
0.0
 11
59.32426694423408
 21
100.7401758816364
 31
0.0
  0
LINE
  5
17424
330
1F
100
AcDbEntity
  8
2実線(中)
100
AcDbLine
 10
56.82426694423408
 20
100.7401758816364
 30
0.0
 11
56.82426694423408
 21
124.9306928884391
 31
0.0
  0
LINE
  5
17425
330
1F
100
AcDbEntity
  8
2実線(中)
100
AcDbLine
 10
69.32426694423407
 20
133.4306928884391
 30
0.0
 11
70.32426694423406
 21
133.4306928884391
 31
0.0
  0
LINE
  5
17426
330
1F
100
AcDbEntity
  8
3実線(細)
100
AcDbLine
 10
70.32426694423406
 20
133.4306928884391
 30
0.0
 11
81.32426694423406
 21
133.4306928884391
 31
0.0
  0
LINE
  5
17427
330
1F
100
AcDbEntity
  8
7二点鎖線(細)
  6
kuroda_nitensasen1
100
AcDbLine
 10
81.32426694423406
 20
127.9306928884391
 30
0.0
 11
44.82426694423407
 21
127.9306928884391
 31
0.0
  0
LINE
  5
17428
330
1F
100
AcDbEntity
  8
7二点鎖線(細)
  6
kuroda_nitensasen1
100
AcDbLine
 10
47.82426694423406
 20
130.9306928884391
 30
0.0
 11
44.82426694423407
 21
130.1268453111458
 31
0.0
  0
SPLINE
  5
17429
330
1F
100
AcDbEntity
  8
PV0001_1
  6
Continuous
 62
     2
100
AcDbSpline
210
0.0
220
0.0
230
1.0
 70
     8
 71
     3
 72
    10
 73
     6
 74
     0
 42
0.000000001
 43
0.0000000001
 40
8.893892697025089
 40
8.893892697025089
 40
8.893892697025089
 40
8.893892697025089
 40
17.44276354251248
 40
24.03010309007353
 40
26.41144668099597
 40
26.41144668099597
 40
26.41144668099597
 40
26.41144668099597
 10
85.32426694423426
 20
141.6071382179931
 30
0.0
 10
83.83916713780648
 20
139.1007437720135
 30
0.0
 10
82.2843729880463
 20
134.5071624718322
 30
0.0
 10
84.80369012999547
 20
128.5644353088724
 30
0.0
 10
83.98899037269391
 20
125.6898680718194
 30
0.0
 10
83.72165063392612
 20
124.9306928884391
 30
0.0
  0
LINE
  5
1742B
330
1F
100
AcDbEntity
  8
2実線(中)
100
AcDbLine
 10
81.32426694423406
 20
133.9306928884391
 30
0.0
 11
70.32426694423406
 21
133.9306928884391
 31
0.0
  0
LINE
  5
1742C
330
1F
100
AcDbEntity
  8
3実線(細)
100
AcDbLine
 10
70.32426694423406
 20
133.9306928884391
 30
0.0
 11
69.32426694423407
 21
133.9306928884391
 31
0.0
  0
LINE
  5
1742D
330
1F
100
AcDbEntity
  8
7二点鎖線(細)
  6
kuroda_nitensasen1
100
AcDbLine
 10
47.82426694423406
 20
130.9306928884391
 30
0.0
 11
47.82426694423406
 21
124.9306928884391
 31
0.0
  0
ARC
  5
17434
330
1F
100
AcDbEntity
  8
2実線(中)
100
AcDbCircle
 10
90.32426694423433
 20
142.4306928884391
 30
0.0
 40
5.0
100
AcDbArc
 50
180.000000000001
 51
270.0
1001
GENIUS_GENODEF_13
1002
{
1000
HIER
1070
     0
1002
}
1002
{
1000
MANEDIT
1070
     0
1002
}
1002
{
1000
NOSEL
1070
     0
1002
}
1002
{
1000
BEHIND
1070
     0
1002
}
1002
{
1000
OTHER
1070
     0
1002
}
1002
{
1000
REACTOR
1002
}
1001
GENIUS_GENOBJ-N-FIL_13
1002
{
1000
OWNER
1000
GEN
1002
}
  0
ARC
  5
17435
330
1F
100
AcDbEntity
  8
2実線(中)
100
AcDbCircle
 10
90.3242669442341
 20
107.4306928884391
 30
0.0
 40
5.0
100
AcDbArc
 50
90.0
 51
180.0
1001
GENIUS_GENODEF_13
1002
{
1000
HIER
1070
     0
1002
}
1002
{
1000
MANEDIT
1070
     0
1002
}
1002
{
1000
NOSEL
1070
     0
1002
}
1002
{
1000
BEHIND
1070
     0
1002
}
1002
{
1000
OTHER
1070
     0
1002
}
1002
{
1000
REACTOR
1002
}
1001
GENIUS_GENOBJ-N-FIL_13
1002
{
1000
OWNER
1000
GEN
1002
}
  0
LINE
  5
17436
330
1F
100
AcDbEntity
  8
2実線(中)
100
AcDbLine
 10
81.32426694423406
 20
127.9306928884391
 30
0.0
 11
84.29666428755195
 21
127.9306928884391
 31
0.0
  0
LINE
  5
17575
330
1F
100
AcDbEntity
  8
PV0001_1
  6
Continuous
 62
     4
100
AcDbLine
 10
27.32426694423406
 20
118.6606928884391
 30
0.0
 11
27.32426694423407
 21
102.2191894870785
 31
0.0
  0
LINE
  5
17576
330
1F
100
AcDbEntity
  8
PV0001_1
  6
Continuous
 62
     4
100
AcDbLine
 10
37.32426694423407
 20
124.9306928884391
 30
0.0
 11
37.32426694423407
 21
115.0833723317992
 31
0.0
  0
LINE
  5
17577
330
1F
100
AcDbEntity
  8
PV0001_1
  6
Continuous
 62
     4
100
AcDbLine
 10
37.32426694423407
 20
115.0833723317992
 30
0.0
 11
27.3242516854441
 21
116.0153333913692
 31
0.0
  0
LINE
  5
17578
330
1F
100
AcDbEntity
  8
PV0001_1
  6
Continuous
 62
     4
100
AcDbLine
 10
27.32426694423407
 20
147.6421962897997
 30
0.0
 11
27.32426694423407
 21
131.2006928884391
 31
0.0
  0
LINE
  5
17579
330
1F
100
AcDbEntity
  8
PV0001_1
  6
Continuous
 62
     4
100
AcDbLine
 10
27.32426694423407
 20
141.9306928884392
 30
0.0
 11
40.32826694423407
 21
141.9306928884392
 31
0.0
  0
LINE
  5
1757A
330
1F
100
AcDbEntity
  8
PV0001_1
  6
Continuous
 62
     4
100
AcDbLine
 10
27.32426694423407
 20
131.2006928884391
 30
0.0
 11
33.32426694423407
 21
131.2006928884391
 31
0.0
  0
LINE
  5
1757B
330
1F
100
AcDbEntity
  8
PV0001_1
  6
Continuous
 62
     4
100
AcDbLine
 10
33.32426694423407
 20
131.2006928884391
 30
0.0
 11
33.32426694423407
 21
118.6606928884391
 31
0.0
  0
LINE
  5
1757C
330
1F
100
AcDbEntity
  8
2実線(中)
100
AcDbLine
 10
56.82426694423408
 20
149.1212098952419
 30
0.0
 11
27.32426694423407
 21
147.6421962897997
 31
0.0
  0
LINE
  5
1757D
330
1F
100
AcDbEntity
  8
2実線(中)
100
AcDbLine
 10
56.82426694423408
 20
100.7401758816364
 30
0.0
 11
27.32426694423407
 21
102.2191894870785
 31
0.0
  0
LINE
  5
1757E
330
1F
100
AcDbEntity
  8
PV0001_1
  6
Continuous
 62
     4
100
AcDbLine
 10
27.32426694423407
 20
118.6606928884391
 30
0.0
 11
37.32426694423406
 21
118.6606928884391
 31
0.0
  0
MTEXT
  5
175B2
330
1F
100
AcDbEntity
  8
8文字(細)
 62
     7
100
AcDbMText
 10
150.8471529289062
 20
134.6039044825428
 30
0.0
 40
3.5
 41
13.13028703620455
 71
     1
 72
     5
  1
Hex.2
 73
     1
 44
1.0
1001
GENIUS_AMGTXT_16
1040
3.5
1040
0.12
1001
ACAD
1000
ACAD_MTEXT_COLUMN_INFO_BEGIN
1070
    75
1070
     2
1070
    79
1070
     0
1070
    76
1070
     1
1070
    78
1070
     0
1070
    48
1040
13.13028703620455
1070
    49
1040
17.5
1070
    50
1070
     1
1040
0.0
1000
ACAD_MTEXT_COLUMN_INFO_END
  0
VIEWPORT
  5
D3D3
330
23
100
AcDbEntity
 67
     1
  8
0
100
AcDbViewport
 10
147.7062500119209
 20
104.2062500119209
 30
0.0
 40
331.1076642335767
 41
222.18
 68
     1
 69
     1
 12
147.7062500119209
 22
104.2062500119209
 13
0.0
 23
0.0
 14
10.0
 24
10.0
 15
10.0
 25
10.0
 16
0.0
 26
0.0
 36
1.0
 17
0.0
 27
0.0
 37
0.0
 42
50.0
 43
0.0
 44
0.0
 45
222.18
 50
0.0
 51
0.0
 72
   100
 90
    32800
  1

281
     0
 71
     1
 74
     0
110
0.0
120
0.0
130
0.0
111
1.0
121
0.0
131
0.0
112
0.0
122
1.0
132
0.0
 79
     0
146
0.0
170
     0
  0
ENDSEC
  0
SECTION
  2
OBJECTS
  0
DICTIONARY
  5
C
330
0
100
AcDbDictionary
281
     1
  3
ACAD_2007HEADERVARS_RT
350
17681
  3
ACAD_CIP_PREVIOUS_PRODUCT_INFO
350
175E2
  3
ACAD_COLOR
350
113E5
  3
ACAD_DETAILVIEWSTYLE
350
175D2
  3
ACAD_FIELDLIST
350
175FF
  3
ACAD_GROUP
350
D
  3
ACAD_LAYOUT
350
1A
  3
ACAD_MATERIAL
350
113E4
  3
ACAD_MLEADERSTYLE
350
14CF5
  3
ACAD_MLINESTYLE
350
17
  3
ACAD_PLOTSETTINGS
350
19
  3
ACAD_PLOTSTYLENAME
350
E
  3
ACAD_SCALELIST
350
14CCC
  3
ACAD_SECTIONVIEWSTYLE
350
175D0
  3
ACAD_TABLESTYLE
350
1146C
  3
ACAD_VISUALSTYLE
350
14CBB
  3
ACDB_RECOMPOSE_DATA
350
17680
  3
AcDbVariableDictionary
350
30
  3
AcDsDecomposeData
350
1768A
  3
AcmDictionary
350
43
  3
AMG
350
3F
  3
AMGSNAPSETTINGS
350
5D
  0
DICTIONARY
  5
11468
330
2
100
AcDbDictionary
280
     1
281
     1
  3
ACAD_LAYERFILTERS
360
12BDD
  3
ACAD_LAYERSTATES
360
12B11
  3
ACLYDICTIONARY
360
12BDC
  3
AMLAYER_GROUPCOLORS
360
11469
  0
DICTIONARY
  5
158D6
330
10
100
AcDbDictionary
280
     1
281
     1
  3
ADSK_XREC_LAYER_RECONCILED
360
158D7
  0
DICTIONARY
  5
158D8
330
263
100
AcDbDictionary
280
     1
281
     1
  3
ADSK_XREC_LAYER_RECONCILED
360
158D9
  0
DICTIONARY
  5
158DA
330
D3CF
100
AcDbDictionary
280
     1
281
     1
  3
ADSK_XREC_LAYER_RECONCILED
360
158DB
  0
DICTIONARY
  5
158DC
330
120CB
100
AcDbDictionary
280
     1
281
     1
  3
ADSK_XREC_LAYER_RECONCILED
360
158DD
  0
DICTIONARY
  5
158DE
330
120CE
100
AcDbDictionary
280
     1
281
     1
  3
ADSK_XREC_LAYER_RECONCILED
360
158DF
  0
DICTIONARY
  5
158E0
330
120D1
100
AcDbDictionary
280
     1
281
     1
  3
ADSK_XREC_LAYER_RECONCILED
360
158E1
  0
DICTIONARY
  5
158E2
330
120D7
100
AcDbDictionary
280
     1
281
     1
  3
ADSK_XREC_LAYER_RECONCILED
360
158E3
  0
DICTIONARY
  5
158E4
330
120DA
100
AcDbDictionary
280
     1
281
     1
  3
ADSK_XREC_LAYER_RECONCILED
360
158E5
  0
DICTIONARY
  5
158E6
330
120DB
100
AcDbDictionary
280
     1
281
     1
  3
ADSK_XREC_LAYER_RECONCILED
360
158E7
  0
DICTIONARY
  5
158E8
330
120DC
100
AcDbDictionary
280
     1
281
     1
  3
ADSK_XREC_LAYER_RECONCILED
360
158E9
  0
DICTIONARY
  5
158EA
330
120E3
100
AcDbDictionary
280
     1
281
     1
  3
ADSK_XREC_LAYER_RECONCILED
360
158EB
  0
DICTIONARY
  5
158EC
330
12B88
100
AcDbDictionary
280
     1
281
     1
  3
ADSK_XREC_LAYER_RECONCILED
360
158ED
  0
DICTIONARY
  5
158EE
330
14D4D
100
AcDbDictionary
280
     1
281
     1
  3
ADSK_XREC_LAYER_RECONCILED
360
158EF
  0
DICTIONARY
  5
158F0
330
14DD8
100
AcDbDictionary
280
     1
281
     1
  3
ADSK_XREC_LAYER_RECONCILED
360
158F1
  0
DICTIONARY
  5
158F2
330
14DD9
100
AcDbDictionary
280
     1
281
     1
  3
ADSK_XREC_LAYER_RECONCILED
360
158F3
  0
DICTIONARY
  5
158F4
330
14DDA
100
AcDbDictionary
280
     1
281
     1
  3
ADSK_XREC_LAYER_RECONCILED
360
158F5
  0
DICTIONARY
  5
158F8
330
14DDC
100
AcDbDictionary
280
     1
281
     1
  3
ADSK_XREC_LAYER_RECONCILED
360
158F9
  0
DICTIONARY
  5
218
330
1F
100
AcDbDictionary
280
     1
281
     1
  3
ACAD_SORTENTS
360
120C5
  0
DICTIONARY
  5
16B2F
330
16B20
100
AcDbDictionary
280
     1
281
     1
  3
ACAD_DIMASSOC
360
16B30
  0
DICTIONARY
  5
17681
102
{ACAD_REACTORS
330
C
102
}
330
C
100
AcDbDictionary
281
     1
  3
DIMARCSYM
350
17683
  3
DIMFXL
350
17682
  3
INTERFEREVPVS
350
17684
  0
XRECORD
  5
175E2
102
{ACAD_REACTORS
330
C
102
}
330
C
100
AcDbXrecord
280
     1
300
AMECH_PP
300
2019
300
87089AMECH_PP_2019_0F
  0
DICTIONARY
  5
113E5
102
{ACAD_REACTORS
330
C
102
}
330
C
100
AcDbDictionary
281
     1
  0
DICTIONARY
  5
175D2
102
{ACAD_REACTORS
330
C
102
}
330
C
100
AcDbDictionary
281
     1
  3
Metric50
350
175D3
  0
FIELDLIST
  5
175FF
102
{ACAD_REACTORS
330
C
102
}
330
C
100
AcDbIdSet
 90
       15
330
175FD
330
175FE
330
17600
330
17605
330
17606
330
17607
330
17610
330
17611
330
17612
330
1761A
330
1761B
330
1761C
330
17625
330
17626
330
17627
100
AcDbFieldList
  0
DICTIONARY
  5
D
102
{ACAD_REACTORS
330
C
102
}
330
C
100
AcDbDictionary
281
     1
  0
DICTIONARY
  5
1A
102
{ACAD_REACTORS
330
C
102
}
330
C
100
AcDbDictionary
281
     1
  3
Model
350
22
  3
\U+FF9A\U+FF72\U+FF71\U+FF73\U+FF841
350
1E
  3
\U+FF9A\U+FF72\U+FF71\U+FF73\U+FF842
350
26
  0
DICTIONARY
  5
113E4
102
{ACAD_REACTORS
330
C
102
}
330
C
100
AcDbDictionary
281
     1
  3
ByBlock
350
14CEF
  3
ByLayer
350
14CEE
  3
Global
350
14CF0
  0
DICTIONARY
  5
14CF5
102
{ACAD_REACTORS
330
C
102
}
330
C
100
AcDbDictionary
281
     1
  3
Standard
350
14CF6
  0
DICTIONARY
  5
17
102
{ACAD_REACTORS
330
C
102
}
330
C
100
AcDbDictionary
281
     1
  3
Standard
350
18
  0
DICTIONARY
  5
19
102
{ACAD_REACTORS
330
C
102
}
330
C
100
AcDbDictionary
281
     1
  3
4024II(Printer_A1)
350
2B8
  3
4024II(Printer_A2)
350
2B9
  3
4024II(Printer_A3)
350
2BA
  3
4024II(Printer_A4_TATE)
350
2BB
  3
4024II(Printer_A4_YOKO)
350
2BC
  3
TEST
350
2F3
  0
ACDBDICTIONARYWDFLT
  5
E
102
{ACAD_REACTORS
330
C
102
}
330
C
100
AcDbDictionary
281
     1
  3
Normal
350
F
100
AcDbDictionaryWithDefault
340
F
  0
DICTIONARY
  5
14CCC
102
{ACAD_REACTORS
330
C
102
}
330
C
100
AcDbDictionary
281
     1
  3
A0
350
14CCD
  3
A1
350
14CCE
  3
A2
350
14CCF
  3
A3
350
14CD0
  3
A4
350
14CD1
  3
A5
350
14CD2
  3
A6
350
14CD3
  3
A7
350
14CD4
  3
A8
350
14CD5
  3
A9
350
14CD6
  3
B0
350
14CD7
  3
B1
350
14CD8
  3
B2
350
14CD9
  3
B3
350
14CDA
  3
B4
350
14CDB
  3
B5
350
14CDC
  3
B6
350
14CDD
  3
B7
350
14CDE
  3
B8
350
14CDF
  3
B9
350
14CE0
  3
C0
350
14CE1
  3
C1
350
14CE2
  3
C2
350
14CE3
  3
C3
350
14CE4
  3
C4
350
14CE5
  3
C5
350
14CE6
  3
C6
350
14CE7
  3
C7
350
14CE8
  3
C8
350
14CE9
  3
C9
350
14CEA
  3
D0
350
14CEB
  3
D1
350
14CEC
  3
D2
350
14CED
  0
DICTIONARY
  5
175D0
102
{ACAD_REACTORS
330
C
102
}
330
C
100
AcDbDictionary
281
     1
  3
Metric50
350
175D1
  0
DICTIONARY
  5
1146C
102
{ACAD_REACTORS
330
C
102
}
330
C
100
AcDbDictionary
281
     1
  3
Standard
350
1146D
  3
下→上　文字高さ3.2
350
1224F
  0
DICTIONARY
  5
14CBB
102
{ACAD_REACTORS
330
C
102
}
330
C
100
AcDbDictionary
281
     1
  3
2dWireframe
350
14CC1
  3
3D Hidden
350
14CC3
  3
3dWireframe
350
14CC2
  3
Basic
350
14CC0
  3
Brighten
350
14CC7
  3
ColorChange
350
14CCB
  3
Conceptual
350
14CC4
  3
Dim
350
14CC6
  3
EdgeColorOff
350
17584
  3
Facepattern
350
14CCA
  3
Flat
350
14CBC
  3
FlatWithEdges
350
14CBD
  3
Gouraud
350
14CBE
  3
GouraudWithEdges
350
14CBF
  3
Hidden
350
175CA
  3
JitterOff
350
17582
  3
Linepattern
350
14CC9
  3
OverhangOff
350
17583
  3
Realistic
350
14CC5
  3
Shaded
350
175CF
  3
Shaded with edges
350
175CE
  3
Shades of Gray
350
175CB
  3
Sketchy
350
175CC
  3
Thicken
350
14CC8
  3
Wireframe
350
175C9
  3
X-Ray
350
175CD
  0
XRECORD
  5
17680
102
{ACAD_REACTORS
330
C
102
}
330
C
100
AcDbXrecord
280
     1
 90
        1
330
1146D
330
1224F
330
175B2
  0
DICTIONARY
  5
30
102
{ACAD_REACTORS
330
C
102
}
330
C
100
AcDbDictionary
281
     1
  3
CANNOSCALE
350
14D2A
  3
CMLEADERSTYLE
350
14D28
  3
CTABLESTYLE
350
115A1
  3
CVIEWDETAILSTYLE
350
1763B
  3
CVIEWSECTIONSTYLE
350
1763C
  3
DIMASSOC
350
1136E
  3
INDEXCTL
350
31
  3
LAYEREVAL
350
175C6
  3
LAYERNOTIFY
350
175C7
  3
LIGHTINGUNITS
350
14D2B
  3
MSLTSCALE
350
14D29
  3
SOLIDHIST
350
1767D
  0
DICTIONARY
  5
1768A
102
{ACAD_REACTORS
330
C
102
}
330
C
100
AcDbDictionary
281
     1
  3
AcDsRecords
350
1768C
  3
AcDsSchemas
350
1768B
1001
ACAD
1070
     2
  0
DICTIONARY
  5
43
102
{ACAD_REACTORS
330
C
102
}
330
C
100
AcDbDictionary
281
     1
  3
AcmBOM
350
1398C
  3
AcmStdDictionary
350
313
  3
AMDTSECTSYM_ARROWCOLOR
350
11488
  0
DICTIONARY
  5
3F
102
{ACAD_REACTORS
330
C
102
}
330
C
100
AcDbDictionary
281
     1
  0
DICTIONARY
  5
5D
102
{ACAD_REACTORS
330
C
102
}
330
C
100
AcDbDictionary
281
     1
  0
DICTIONARY
  5
12BDD
102
{ACAD_REACTORS
330
11468
102
}
330
11468
100
AcDbDictionary
281
     1
  0
DICTIONARY
  5
12B11
102
{ACAD_REACTORS
330
11468
102
}
330
11468
100
AcDbDictionary
281
     1
  0
DICTIONARY
  5
12BDC
102
{ACAD_REACTORS
330
11468
102
}
330
11468
100
AcDbDictionary
281
     1
1001
ACAD
1000
<All
  0
DICTIONARY
  5
11469
102
{ACAD_REACTORS
330
11468
102
}
330
11468
100
AcDbDictionary
280
     1
281
     1
  0
XRECORD
  5
158D7
102
{ACAD_REACTORS
330
158D6
102
}
330
158D6
100
AcDbXrecord
280
     1
290
     1
  0
XRECORD
  5
158D9
102
{ACAD_REACTORS
330
158D8
102
}
330
158D8
100
AcDbXrecord
280
     1
290
     1
  0
XRECORD
  5
158DB
102
{ACAD_REACTORS
330
158DA
102
}
330
158DA
100
AcDbXrecord
280
     1
290
     1
  0
XRECORD
  5
158DD
102
{ACAD_REACTORS
330
158DC
102
}
330
158DC
100
AcDbXrecord
280
     1
290
     1
  0
XRECORD
  5
158DF
102
{ACAD_REACTORS
330
158DE
102
}
330
158DE
100
AcDbXrecord
280
     1
290
     1
  0
XRECORD
  5
158E1
102
{ACAD_REACTORS
330
158E0
102
}
330
158E0
100
AcDbXrecord
280
     1
290
     1
  0
XRECORD
  5
158E3
102
{ACAD_REACTORS
330
158E2
102
}
330
158E2
100
AcDbXrecord
280
     1
290
     1
  0
XRECORD
  5
158E5
102
{ACAD_REACTORS
330
158E4
102
}
330
158E4
100
AcDbXrecord
280
     1
290
     1
  0
XRECORD
  5
158E7
102
{ACAD_REACTORS
330
158E6
102
}
330
158E6
100
AcDbXrecord
280
     1
290
     1
  0
XRECORD
  5
158E9
102
{ACAD_REACTORS
330
158E8
102
}
330
158E8
100
AcDbXrecord
280
     1
290
     1
  0
XRECORD
  5
158EB
102
{ACAD_REACTORS
330
158EA
102
}
330
158EA
100
AcDbXrecord
280
     1
290
     1
  0
XRECORD
  5
158ED
102
{ACAD_REACTORS
330
158EC
102
}
330
158EC
100
AcDbXrecord
280
     1
290
     1
  0
XRECORD
  5
158EF
102
{ACAD_REACTORS
330
158EE
102
}
330
158EE
100
AcDbXrecord
280
     1
290
     1
  0
XRECORD
  5
158F1
102
{ACAD_REACTORS
330
158F0
102
}
330
158F0
100
AcDbXrecord
280
     1
290
     1
  0
XRECORD
  5
158F3
102
{ACAD_REACTORS
330
158F2
102
}
330
158F2
100
AcDbXrecord
280
     1
290
     1
  0
XRECORD
  5
158F5
102
{ACAD_REACTORS
330
158F4
102
}
330
158F4
100
AcDbXrecord
280
     1
290
     1
  0
XRECORD
  5
158F9
102
{ACAD_REACTORS
330
158F8
102
}
330
158F8
100
AcDbXrecord
280
     1
290
     1
  0
SORTENTSTABLE
  5
120C5
102
{ACAD_REACTORS
330
218
102
}
330
218
100
AcDbSortentsTable
330
1F
331
14F49
  5
14F4A
331
14F4A
  5
14F4B
331
14F4B
  5
14F4C
331
14F4C
  5
14F4D
331
14F4D
  5
14F4E
331
14F4E
  5
14F4F
331
14F4F
  5
14F50
331
14F50
  5
14F51
331
14F51
  5
14F52
331
14F52
  5
14F53
331
14F53
  5
14F54
331
14F54
  5
14F55
331
14F55
  5
14F56
331
14F56
  5
14F57
331
14F57
  5
14F58
331
14F58
  5
14F59
331
14F59
  5
14F5A
331
14F5A
  5
14F5B
331
14F5B
  5
14F5C
331
14F5C
  5
14F5D
331
14F5D
  5
14F5E
331
14F5E
  5
14F5F
331
14F5F
  5
14F60
331
14F60
  5
14F61
331
14F61
  5
14F62
331
14F62
  5
14F63
331
14F63
  5
14F64
331
14F64
  5
14F65
331
14F65
  5
14F66
331
14F66
  5
14F67
331
14F67
  5
14F68
331
14F68
  5
14F69
331
14F69
  5
14F6A
331
14F6A
  5
14F6B
331
14F6B
  5
14F6C
331
14F6C
  5
14F6D
331
14F6D
  5
14F6E
331
14F6E
  5
14F6F
331
14F6F
  5
14F70
331
14F70
  5
14F71
331
14F71
  5
14F72
331
14F72
  5
14F73
331
14F73
  5
14F74
331
14F74
  5
14F75
331
14F75
  5
14F76
331
14F76
  5
14F77
331
14F77
  5
14F78
331
14F78
  5
14F79
331
14F79
  5
14F7A
331
14F7A
  5
14F7B
331
14F7B
  5
14F7C
331
14F7C
  5
14F7D
331
14F7D
  5
14F7E
331
14F7E
  5
14F7F
331
14F7F
  5
14F80
331
14F80
  5
14F81
331
14F81
  5
14F82
331
14F82
  5
14F83
331
14F83
  5
14F84
331
14F84
  5
14F85
331
14F85
  5
14F86
331
14F86
  5
14F87
331
14F87
  5
14F88
331
14F88
  5
14F89
331
14F89
  5
14F8A
331
14F8A
  5
14F8B
331
14F8B
  5
14F8C
331
14F8C
  5
14F8D
331
14F8D
  5
14F8E
331
14F8E
  5
14F8F
331
14F8F
  5
14F90
331
14F90
  5
14F91
331
14F91
  5
14F92
331
14F92
  5
14F93
331
14F93
  5
14F94
331
14F94
  5
14F95
331
14F95
  5
14F96
331
14F96
  5
14F97
331
14F97
  5
14F98
331
14F98
  5
14F99
331
14F99
  5
14F9A
331
14F9A
  5
14F9B
331
14F9B
  5
14F9C
331
14F9C
  5
14F9D
331
14F9D
  5
14F9E
331
14F9E
  5
14F9F
331
14F9F
  5
14FA0
331
14FA0
  5
14FA1
331
14FA1
  5
14FA2
331
14FA2
  5
14FA3
331
14FA3
  5
14FA4
331
14FA4
  5
14FA5
331
14FA5
  5
14FA6
331
14FA6
  5
14FA7
331
14FA7
  5
14FA8
331
14FA8
  5
14FA9
331
14FA9
  5
14FAA
331
14FAA
  5
14FAB
331
14FAB
  5
14FAC
331
14FAC
  5
14FAD
331
14FAD
  5
14FAE
331
14FAE
  5
14FAF
331
14FAF
  5
14FB0
331
14FB0
  5
14FB1
331
14FB1
  5
14FB2
331
14FB2
  5
14FB3
331
14FB3
  5
14FB4
331
14FB4
  5
14FB5
331
14FB5
  5
14FB6
331
14FB6
  5
14FB7
331
14FB7
  5
14FB8
331
14FB8
  5
14FB9
331
14FB9
  5
14FBA
331
14FBA
  5
14FBB
331
14FBB
  5
14FBC
331
14FBC
  5
14FBD
331
14FBD
  5
14FBE
331
14FBE
  5
14FBF
331
14FBF
  5
14FC0
331
14FC0
  5
14FC1
331
14FC1
  5
14FC2
331
14FC2
  5
14FC3
331
14FC3
  5
14FC4
331
14FC4
  5
14FC5
331
14FC5
  5
14FC6
331
14FC6
  5
14FC7
331
14FC7
  5
14FCA
331
14FCA
  5
14FCC
331
14FCC
  5
14FCD
331
14FCD
  5
14FCE
331
14FCE
  5
14FCF
331
14FCF
  5
161D6
331
161D6
  5
161D8
331
161D8
  5
161D9
331
161D9
  5
16B19
331
16B19
  5
16B1E
331
16B1E
  5
16B20
331
16B20
  5
16C29
331
16C29
  5
16C2E
331
16C2E
  5
16C30
331
16C30
  5
16C31
331
16C31
  5
16C68
331
16C68
  5
16C69
331
16C69
  5
16C6A
331
16C6A
  5
16C6C
331
16C6C
  5
16C6D
331
16C6D
  5
16C6F
331
16C6F
  5
16C78
331
16C78
  5
16C92
331
16C92
  5
16C93
331
16C93
  5
16C95
331
16C95
  5
16C97
331
16C97
  5
16C98
331
16C98
  5
16C9C
331
16C9C
  5
16C9E
331
16C9E
  5
16CAF
331
16CAF
  5
16CB0
331
16CB0
  5
16CB4
331
16CB4
  5
16CB5
331
16CB5
  5
16CB8
331
16CB8
  5
16CB9
331
16CB9
  5
16CBA
331
16CBA
  5
16CBB
331
16CBB
  5
16CBC
331
16CBC
  5
16CBD
331
16CBD
  5
16CBE
331
16CBE
  5
16CBF
331
16CBF
  5
16CC0
331
16CC0
  5
16CC1
331
16CC1
  5
16CC2
331
16CC2
  5
16CC3
331
16CC3
  5
16CC4
331
16CC4
  5
16CC5
331
16CC5
  5
16CC6
331
16CC6
  5
16CC7
331
16CC7
  5
16CC8
331
16CC8
  5
16CC9
331
16CC9
  5
16CCB
331
16CCB
  5
16CCC
331
16CCC
  5
16CD0
331
16CD0
  5
16CD1
331
16CD1
  5
16FF2
331
16FF2
  5
16FF3
331
16FF3
  5
1738C
331
1738C
  5
1738D
331
1738D
  5
1738E
331
1738E
  5
1738F
331
1738F
  5
17390
331
17390
  5
17391
331
17391
  5
17392
331
17392
  5
17393
331
17393
  5
17394
331
17394
  5
17395
331
17395
  5
17396
331
17396
  5
17397
331
17397
  5
17398
331
17398
  5
17399
331
17399
  5
1739A
331
1739A
  5
1739B
331
1739B
  5
1739C
331
1739C
  5
1739D
331
1739D
  5
1739E
331
1739E
  5
1739F
331
1739F
  5
173A0
331
173A0
  5
173A1
331
173A1
  5
173A2
331
173A2
  5
173A3
331
173A3
  5
173A4
331
173A4
  5
173A5
331
173A5
  5
173A6
331
173A6
  5
173A7
331
173A7
  5
173A8
331
173A8
  5
173A9
331
173A9
  5
173AA
331
173AA
  5
173AB
331
173AB
  5
173AC
331
173AC
  5
173AD
331
173AD
  5
173AE
331
173AE
  5
173AF
331
173AF
  5
173B0
331
173B0
  5
173B1
331
173B1
  5
173B2
331
173B2
  5
173B3
331
173B3
  5
173B4
331
173B4
  5
173B5
331
173B5
  5
173B6
331
173B6
  5
173B7
331
173B7
  5
173B8
331
173B8
  5
173B9
331
173B9
  5
173BA
331
173BA
  5
173BB
331
173BB
  5
173BC
331
173BC
  5
173BD
331
173BD
  5
173BE
331
173BE
  5
173BF
331
173BF
  5
173C0
331
173C0
  5
173C1
331
173C1
  5
173C2
331
173C2
  5
173C3
331
173C3
  5
173C4
331
173C4
  5
173C5
331
173C5
  5
173C6
331
173C6
  5
173C7
331
173C7
  5
173C8
331
173C8
  5
173C9
331
173C9
  5
173CA
331
173CA
  5
173CB
331
173CB
  5
173CC
331
173CC
  5
173CD
331
173CD
  5
173CE
331
173CE
  5
173CF
331
173CF
  5
173D0
331
173D0
  5
173D1
331
173D1
  5
173D7
331
173D7
  5
173D8
331
173D8
  5
173D9
331
173D9
  5
173DA
331
173DA
  5
173DE
331
173DE
  5
173DF
331
173DF
  5
173E1
331
173E0
  5
173E2
331
173E1
  5
173E3
331
173E2
  5
173E4
331
173E3
  5
173E5
331
173E4
  5
173E6
331
173E5
  5
173E7
331
173E6
  5
173E8
331
173E7
  5
173E9
331
173E8
  5
173EA
331
173E9
  5
173EB
331
173EA
  5
173EC
331
173EB
  5
173ED
331
173EC
  5
173EE
331
173ED
  5
173EF
331
173EE
  5
173F0
331
173EF
  5
173F1
331
173F0
  5
173F2
331
173F1
  5
173F3
331
173F2
  5
173F4
331
173F3
  5
173F5
331
173F4
  5
173F6
331
173F5
  5
173F7
331
173F6
  5
173F8
331
173F7
  5
173F9
331
173F8
  5
173FA
331
173F9
  5
173FB
331
173FA
  5
173FC
331
173FB
  5
173FD
331
173FC
  5
173FE
331
173FD
  5
173FF
331
173FE
  5
17400
331
173FF
  5
17401
331
17400
  5
17402
331
17401
  5
17403
331
17402
  5
17404
331
17403
  5
17405
331
17404
  5
17406
331
17405
  5
17407
331
17406
  5
17408
331
17407
  5
17409
331
17408
  5
1740A
331
17409
  5
1740B
331
1740A
  5
1740C
331
1740B
  5
1740D
331
1740C
  5
1740E
331
1740D
  5
1740F
331
1740E
  5
17410
331
1740F
  5
17411
331
17410
  5
17412
331
17411
  5
17413
331
17412
  5
17415
331
17413
  5
17416
331
17414
  5
17417
331
17415
  5
17418
331
17416
  5
17419
331
17417
  5
1741A
331
17418
  5
1741B
331
17419
  5
1741C
331
1741A
  5
1741D
331
1741B
  5
1741E
331
1741C
  5
1741F
331
1741D
  5
17420
331
1741E
  5
17421
331
1741F
  5
17423
331
17421
  5
17425
331
17423
  5
17426
331
17424
  5
17427
331
17425
  5
17428
331
17426
  5
17429
331
17427
  5
1742A
331
17428
  5
1742B
331
17429
  5
1742D
331
1742B
  5
17434
331
1742C
  5
17435
331
1742D
  5
17436
331
17434
  5
17414
331
17435
  5
173E0
331
17436
  5
17575
331
17575
  5
17576
331
17576
  5
17577
331
17577
  5
17578
331
17578
  5
17579
331
17579
  5
1757A
331
1757A
  5
1757B
331
1757B
  5
1757C
331
1757C
  5
1757D
331
1757D
  5
1757E
331
1757E
  5
175B2
331
175B2
  5
17639
  0
DIMASSOC
  5
16B30
102
{ACAD_REACTORS
330
16B2F
102
}
330
16B2F
100
AcDbDimAssoc
330
16B20
 90
        1
 70
     0
 71
     0
  1
AcDbOsnapPointRef
 72
    13
331
16B1E
 73
     0
 91
        0
 40
0.0
 10
0.0
 20
0.0
 30
2.000000000000000E+50
 75
     0
  0
XRECORD
  5
17683
102
{ACAD_REACTORS
330
17681
102
}
330
17681
100
AcDbXrecord
280
     1
 70
     1
  0
XRECORD
  5
17682
102
{ACAD_REACTORS
330
17681
102
}
330
17681
100
AcDbXrecord
280
     1
 40
0.0
  0
XRECORD
  5
17684
102
{ACAD_REACTORS
330
17681
102
}
330
17681
100
AcDbXrecord
280
     1
340
14CC2
  0
ACDBDETAILVIEWSTYLE
  5
175D3
102
{ACAD_XDICTIONARY
360
176CB
102
}
102
{ACAD_REACTORS
330
175D2
330
175EC
330
175EE
330
175F0
330
175F2
102
}
330
175D2
100
AcDbModelDocViewStyle
 70
     0
  3
Metric50
290
     0
100
AcDbDetailViewStyle
 70
     0
 71
     0
 90
        3
 71
     1
340
11
 62
   256
 40
5.0
340
0
 62
   256
 40
5.0
300

 40
0.0
280
     1
 71
     2
340
16
 90
       25
 62
   256
 71
     3
340
11
 62
   256
 40
5.0
 90
        0
 40
15.0
 90
        1
300
%<\AcVar ViewDetailId>% (%<\AcVar ViewScale \f "%sn">%)
 71
     4
340
16
 90
       25
 62
   256
340
16
 90
       25
 62
   256
280
     0
  0
LAYOUT
  5
22
102
{ACAD_XDICTIONARY
360
175C3
102
}
102
{ACAD_REACTORS
330
1A
102
}
330
1A
100
AcDbPlotSettings
  1

  2
\\kuroda3240\NEC MultiWriter2860N
  4
A4
  6
AM_VIEW1
 40
5.873749732971191
 41
5.873747825622558
 42
5.958419799804687
 43
5.873748779296875
 44
210.0579986572266
 45
297.0953369140625
 46
-2.887085437774658
 47
1.673920154571646
 48
0.0
 49
0.0
140
0.0
141
0.0
142
1.0
143
1.0
 70
 11956
 72
     1
 73
     1
 74
     2
  7
tg-kuroda-monochrome.ctb
 75
    16
147
1.0
 76
     0
 77
     2
 78
   300
148
0.0
149
0.0
100
AcDbLayout
  1
Model
 70
     1
 71
     0
 10
0.0
 20
0.0
 11
12.0
 21
9.0
 12
0.0
 22
0.0
 32
0.0
 14
0.0
 24
0.0
 34
0.0
 15
0.0
 25
0.0
 35
0.0
146
0.0
 13
0.0
 23
0.0
 33
0.0
 16
1.0
 26
0.0
 36
0.0
 17
0.0
 27
1.0
 37
0.0
 76
     0
330
1F
331
14CBA
1001
ACAD_PSEXT
1000
\\kuroda3240\NEC MultiWriter2860N
1000
NEC MultiWriter2860N
1000
\\kuroda3240
1000

1070
     0
  0
LAYOUT
  5
1E
102
{ACAD_XDICTIONARY
360
12B13
102
}
102
{ACAD_REACTORS
330
1A
102
}
330
1A
100
AcDbPlotSettings
  1

  2
DocuWide2050／2051.pc3
  4
A3_(420.00_x_297.00_mm)
  6

 40
0.7937499880790711
 41
0.7937499880790711
 42
0.79376220703125
 43
0.79376220703125
 44
420.0
 45
297.0
 46
0.0
 47
0.0
 48
0.0
 49
0.0
140
0.0
141
0.0
142
1.0
143
1.0
 70
   688
 72
     1
 73
     0
 74
     5
  7
tg-kuroda-monochrome.ctb
 75
    16
147
1.0
 76
     0
 77
     2
 78
   300
148
0.0
149
0.0
100
AcDbLayout
  1
\U+FF9A\U+FF72\U+FF71\U+FF73\U+FF841
 70
     1
 71
     1
 10
-0.7937499880790711
 20
-0.7937499880790711
 11
419.2062500119209
 21
296.2062500119209
 12
0.0
 22
0.0
 32
0.0
 14
1.000000000000000E+20
 24
1.000000000000000E+20
 34
1.000000000000000E+20
 15
-1.000000000000000E+20
 25
-1.000000000000000E+20
 35
-1.000000000000000E+20
146
0.0
 13
0.0
 23
0.0
 33
0.0
 16
1.0
 26
0.0
 36
0.0
 17
0.0
 27
1.0
 37
0.0
 76
     0
330
1B
331
D3CE
1001
ACAD_PSEXT
1000
DocuWide2050／2051.pc3
1000
DocuWide2050／2051
1000
IP_192.30.82.3
1000

1070
     0
  0
LAYOUT
  5
26
102
{ACAD_XDICTIONARY
360
12B1D
102
}
102
{ACAD_REACTORS
330
1A
102
}
330
1A
100
AcDbPlotSettings
  1

  2
DocuWide2050／2051.pc3
  4
A4_(297.00_x_210.00_mm)
  6

 40
0.7937499880790711
 41
0.7937499880790711
 42
0.79376220703125
 43
0.7937469482421875
 44
297.0
 45
210.0
 46
0.0
 47
0.0
 48
0.0
 49
0.0
140
0.0
141
0.0
142
1.0
143
1.0
 70
   688
 72
     1
 73
     0
 74
     5
  7
tg-kuroda-monochrome.ctb
 75
    16
147
1.0
 76
     0
 77
     2
 78
   300
148
0.0
149
0.0
100
AcDbLayout
  1
\U+FF9A\U+FF72\U+FF71\U+FF73\U+FF842
 70
     1
 71
     2
 10
-0.7937499880790711
 20
-0.7937499880790711
 11
296.2062500119209
 21
209.2062500119209
 12
0.0
 22
0.0
 32
0.0
 14
1.000000000000000E+20
 24
1.000000000000000E+20
 34
1.000000000000000E+20
 15
-1.000000000000000E+20
 25
-1.000000000000000E+20
 35
-1.000000000000000E+20
146
0.0
 13
0.0
 23
0.0
 33
0.0
 16
1.0
 26
0.0
 36
0.0
 17
0.0
 27
1.0
 37
0.0
 76
     0
330
23
331
D3D3
1001
ACAD_PSEXT
1000
DocuWide2050／2051.pc3
1000
DocuWide2050／2051
1000
IP_192.30.82.3
1000

1070
     0
  0
MATERIAL
  5
14CEF
102
{ACAD_XDICTIONARY
360
176B1
102
}
102
{ACAD_REACTORS
330
113E4
102
}
330
113E4
100
AcDbMaterial
  1
ByBlock
  0
MATERIAL
  5
14CEE
102
{ACAD_XDICTIONARY
360
176AF
102
}
102
{ACAD_REACTORS
330
113E4
102
}
330
113E4
100
AcDbMaterial
  1
ByLayer
  0
MATERIAL
  5
14CF0
102
{ACAD_XDICTIONARY
360
176B3
102
}
102
{ACAD_REACTORS
330
113E4
102
}
330
113E4
100
AcDbMaterial
  1
Global
  0
MLEADERSTYLE
  5
14CF6
102
{ACAD_REACTORS
330
14CF5
102
}
330
14CF5
100
AcDbMLeaderStyle
170
     2
171
     1
172
     0
 90
        2
 40
0.0
 41
0.0
173
     1
 91
-1056964608
340
14
 92
       -2
290
     1
 42
2.0
291
     1
 43
0.36
  3
Standard
 44
4.0
300

342
11
174
     1
178
     6
175
     1
176
     0
 93
-1056964608
 45
4.0
292
     0
297
     0
 46
4.0
 94
-1056964608
 47
1.0
 49
1.0
140
1.0
293
     1
141
0.0
294
     1
177
     0
142
1.0
295
     0
296
     0
143
0.125
1001
ACAD_MLEADERVER
1070
     2
  0
MLINESTYLE
  5
18
102
{ACAD_REACTORS
330
17
102
}
330
17
100
AcDbMlineStyle
  2
STANDARD
 70
     0
  3

 62
   256
 51
90.0
 52
90.0
 71
     2
 49
0.5
 62
   256
  6
BYLAYER
 49
-0.5
 62
   256
  6
BYLAYER
  0
PLOTSETTINGS
  5
2B8
102
{ACAD_REACTORS
330
19
102
}
330
19
100
AcDbPlotSettings
  1
4024II(Printer_A1)
  2
4024II(Printer).pc3
  4
User117
  6

 40
3.174999952316284
 41
3.174999952316284
 42
3.17498779296875
 43
3.17498779296875
 44
593.7249755859375
 45
840.6129760742187
 46
0.0
 47
0.0
 48
0.0
 49
0.0
140
0.0
141
0.0
142
1.0
143
0.5056395082328096
 70
  1712
 72
     1
 73
     1
 74
     2
  7
monochrome.ctb
 75
     0
147
1.977693561753038
 76
     0
 77
     2
 78
   300
148
0.0
149
0.0
  0
PLOTSETTINGS
  5
2B9
102
{ACAD_REACTORS
330
19
102
}
330
19
100
AcDbPlotSettings
  1
4024II(Printer_A2)
  2
4024II(Printer).pc3
  4
User118
  6

 40
3.174999952316284
 41
3.174999952316284
 42
3.17498779296875
 43
3.17498779296875
 44
420.0
 45
594.0
 46
0.0
 47
0.0
 48
0.0
 49
0.0
140
0.0
141
0.0
142
1.0
143
0.7179982864768178
 70
  1712
 72
     1
 73
     1
 74
     2
  7
monochrome.ctb
 75
     0
147
1.392760984022609
 76
     0
 77
     2
 78
   300
148
0.0
149
0.0
  0
PLOTSETTINGS
  5
2BA
102
{ACAD_REACTORS
330
19
102
}
330
19
100
AcDbPlotSettings
  1
4024II(Printer_A3)
  2
4024II(Printer).pc3
  4
User119
  6

 40
3.174999952316284
 41
3.174999952316284
 42
3.17498779296875
 43
3.17498779296875
 44
297.0
 45
420.0
 46
0.0
 47
0.0
 48
0.0
 49
0.0
140
0.0
141
0.0
142
1.0
143
1.021847539919317
 70
  1712
 72
     1
 73
     1
 74
     2
  7
monochrome.ctb
 75
     0
147
0.9786195698811951
 76
     0
 77
     2
 78
   300
148
0.0
149
0.0
  0
PLOTSETTINGS
  5
2BB
102
{ACAD_REACTORS
330
19
102
}
330
19
100
AcDbPlotSettings
  1
4024II(Printer_A4_TATE)
  2
4024II(Printer).pc3
  4
User120
  6

 40
3.174999952316284
 41
3.174999952316284
 42
3.175003051757812
 43
3.17498779296875
 44
210.0
 45
297.0
 46
0.0
 47
0.0
 48
0.0
 49
0.0
140
0.0
141
0.0
142
1.0
143
2.062361925831023
 70
  1712
 72
     1
 73
     0
 74
     2
  7
monochrome.ctb
 75
     0
147
0.484880945228395
 76
     0
 77
     2
 78
   300
148
0.0
149
0.0
  0
PLOTSETTINGS
  5
2BC
102
{ACAD_REACTORS
330
19
102
}
330
19
100
AcDbPlotSettings
  1
4024II(Printer_A4_YOKO)
  2
4024II(Printer).pc3
  4
User120
  6

 40
3.174999952316284
 41
3.174999952316284
 42
3.175003051757812
 43
3.17498779296875
 44
210.0
 45
297.0
 46
0.0
 47
0.0
 48
0.0
 49
0.0
140
0.0
141
0.0
142
1.0
143
1.458384504694795
 70
  1712
 72
     1
 73
     1
 74
     2
  7
monochrome.ctb
 75
     0
147
0.6856902255755081
 76
     0
 77
     2
 78
   300
148
0.0
149
0.0
  0
PLOTSETTINGS
  5
2F3
102
{ACAD_REACTORS
330
19
102
}
330
19
100
AcDbPlotSettings
  1
TEST
  2
4024II(Printer).pc3
  4
User119
  6

 40
3.174999952316284
 41
3.174999952316284
 42
3.17498779296875
 43
3.17498779296875
 44
297.0
 45
420.0
 46
4.0
 47
4.0
 48
0.0
 49
0.0
140
0.0
141
0.0
142
1.0
143
1.0
 70
  1712
 72
     1
 73
     1
 74
     0
  7
monochrome.ctb
 75
    16
147
1.0
 76
     0
 77
     2
 78
   300
148
0.0
149
0.0
  0
ACDBPLACEHOLDER
  5
F
102
{ACAD_REACTORS
330
E
102
}
330
E
  0
SCALE
  5
14CCD
102
{ACAD_REACTORS
330
14CCC
102
}
330
14CCC
100
AcDbScale
 70
     0
300
1:1
140
1.0
141
1.0
290
     1
  0
SCALE
  5
14CCE
102
{ACAD_REACTORS
330
14CCC
102
}
330
14CCC
100
AcDbScale
 70
     0
300
1:2
140
1.0
141
2.0
290
     0
  0
SCALE
  5
14CCF
102
{ACAD_REACTORS
330
14CCC
102
}
330
14CCC
100
AcDbScale
 70
     0
300
1:4
140
1.0
141
4.0
290
     0
  0
SCALE
  5
14CD0
102
{ACAD_REACTORS
330
14CCC
102
}
330
14CCC
100
AcDbScale
 70
     0
300
1:5
140
1.0
141
5.0
290
     0
  0
SCALE
  5
14CD1
102
{ACAD_REACTORS
330
14CCC
102
}
330
14CCC
100
AcDbScale
 70
     0
300
1:8
140
1.0
141
8.0
290
     0
  0
SCALE
  5
14CD2
102
{ACAD_REACTORS
330
14CCC
102
}
330
14CCC
100
AcDbScale
 70
     0
300
1:10
140
1.0
141
10.0
290
     0
  0
SCALE
  5
14CD3
102
{ACAD_REACTORS
330
14CCC
102
}
330
14CCC
100
AcDbScale
 70
     0
300
1:16
140
1.0
141
16.0
290
     0
  0
SCALE
  5
14CD4
102
{ACAD_REACTORS
330
14CCC
102
}
330
14CCC
100
AcDbScale
 70
     0
300
1:20
140
1.0
141
20.0
290
     0
  0
SCALE
  5
14CD5
102
{ACAD_REACTORS
330
14CCC
102
}
330
14CCC
100
AcDbScale
 70
     0
300
1:30
140
1.0
141
30.0
290
     0
  0
SCALE
  5
14CD6
102
{ACAD_REACTORS
330
14CCC
102
}
330
14CCC
100
AcDbScale
 70
     0
300
1:40
140
1.0
141
40.0
290
     0
  0
SCALE
  5
14CD7
102
{ACAD_REACTORS
330
14CCC
102
}
330
14CCC
100
AcDbScale
 70
     0
300
1:50
140
1.0
141
50.0
290
     0
  0
SCALE
  5
14CD8
102
{ACAD_REACTORS
330
14CCC
102
}
330
14CCC
100
AcDbScale
 70
     0
300
1:100
140
1.0
141
100.0
290
     0
  0
SCALE
  5
14CD9
102
{ACAD_REACTORS
330
14CCC
102
}
330
14CCC
100
AcDbScale
 70
     0
300
2:1
140
2.0
141
1.0
290
     0
  0
SCALE
  5
14CDA
102
{ACAD_REACTORS
330
14CCC
102
}
330
14CCC
100
AcDbScale
 70
     0
300
4:1
140
4.0
141
1.0
290
     0
  0
SCALE
  5
14CDB
102
{ACAD_REACTORS
330
14CCC
102
}
330
14CCC
100
AcDbScale
 70
     0
300
8:1
140
8.0
141
1.0
290
     0
  0
SCALE
  5
14CDC
102
{ACAD_REACTORS
330
14CCC
102
}
330
14CCC
100
AcDbScale
 70
     0
300
10:1
140
10.0
141
1.0
290
     0
  0
SCALE
  5
14CDD
102
{ACAD_REACTORS
330
14CCC
102
}
330
14CCC
100
AcDbScale
 70
     0
300
100:1
140
100.0
141
1.0
290
     0
  0
SCALE
  5
14CDE
102
{ACAD_REACTORS
330
14CCC
102
}
330
14CCC
100
AcDbScale
 70
     0
300
1/128" = 1'-0"
140
0.0078125
141
12.0
290
     0
  0
SCALE
  5
14CDF
102
{ACAD_REACTORS
330
14CCC
102
}
330
14CCC
100
AcDbScale
 70
     0
300
1/64" = 1'-0"
140
0.015625
141
12.0
290
     0
  0
SCALE
  5
14CE0
102
{ACAD_REACTORS
330
14CCC
102
}
330
14CCC
100
AcDbScale
 70
     0
300
1/32" = 1'-0"
140
0.03125
141
12.0
290
     0
  0
SCALE
  5
14CE1
102
{ACAD_REACTORS
330
14CCC
102
}
330
14CCC
100
AcDbScale
 70
     0
300
1/16" = 1'-0"
140
0.0625
141
12.0
290
     0
  0
SCALE
  5
14CE2
102
{ACAD_REACTORS
330
14CCC
102
}
330
14CCC
100
AcDbScale
 70
     0
300
3/32" = 1'-0"
140
0.09375
141
12.0
290
     0
  0
SCALE
  5
14CE3
102
{ACAD_REACTORS
330
14CCC
102
}
330
14CCC
100
AcDbScale
 70
     0
300
1/8" = 1'-0"
140
0.125
141
12.0
290
     0
  0
SCALE
  5
14CE4
102
{ACAD_REACTORS
330
14CCC
102
}
330
14CCC
100
AcDbScale
 70
     0
300
3/16" = 1'-0"
140
0.1875
141
12.0
290
     0
  0
SCALE
  5
14CE5
102
{ACAD_REACTORS
330
14CCC
102
}
330
14CCC
100
AcDbScale
 70
     0
300
1/4" = 1'-0"
140
0.25
141
12.0
290
     0
  0
SCALE
  5
14CE6
102
{ACAD_REACTORS
330
14CCC
102
}
330
14CCC
100
AcDbScale
 70
     0
300
3/8" = 1'-0"
140
0.375
141
12.0
290
     0
  0
SCALE
  5
14CE7
102
{ACAD_REACTORS
330
14CCC
102
}
330
14CCC
100
AcDbScale
 70
     0
300
1/2" = 1'-0"
140
0.5
141
12.0
290
     0
  0
SCALE
  5
14CE8
102
{ACAD_REACTORS
330
14CCC
102
}
330
14CCC
100
AcDbScale
 70
     0
300
3/4" = 1'-0"
140
0.75
141
12.0
290
     0
  0
SCALE
  5
14CE9
102
{ACAD_REACTORS
330
14CCC
102
}
330
14CCC
100
AcDbScale
 70
     0
300
1" = 1'-0"
140
1.0
141
12.0
290
     0
  0
SCALE
  5
14CEA
102
{ACAD_REACTORS
330
14CCC
102
}
330
14CCC
100
AcDbScale
 70
     0
300
1-1/2" = 1'-0"
140
1.5
141
12.0
290
     0
  0
SCALE
  5
14CEB
102
{ACAD_REACTORS
330
14CCC
102
}
330
14CCC
100
AcDbScale
 70
     0
300
3" = 1'-0"
140
3.0
141
12.0
290
     0
  0
SCALE
  5
14CEC
102
{ACAD_REACTORS
330
14CCC
102
}
330
14CCC
100
AcDbScale
 70
     0
300
6" = 1'-0"
140
6.0
141
12.0
290
     0
  0
SCALE
  5
14CED
102
{ACAD_REACTORS
330
14CCC
102
}
330
14CCC
100
AcDbScale
 70
     0
300
1'-0" = 1'-0"
140
12.0
141
12.0
290
     0
  0
ACDBSECTIONVIEWSTYLE
  5
175D1
102
{ACAD_XDICTIONARY
360
176C9
102
}
102
{ACAD_REACTORS
330
175D0
330
175EB
330
175ED
330
175EF
330
175F1
102
}
330
175D0
100
AcDbModelDocViewStyle
 70
     0
  3
Metric50
290
     0
100
AcDbSectionViewStyle
 70
     0
 71
     0
 90
      102
 71
     1
340
11
 62
   256
 40
5.0
340
0
340
0
 62
   256
 40
5.0
300
I, O, Q, S, X, Z
 40
10.0
 90
        0
 40
2.5
 90
        0
 71
     2
340
16
 90
       25
 62
   256
340
16
 90
       50
 62
   256
 40
5.0
 40
2.5
 40
5.0
 71
     3
340
11
 62
   256
 40
5.0
 90
        0
 40
15.0
 90
        1
300
%<\AcVar ViewSectionStartId>%-%<\AcVar ViewSectionEndId>% (%<\AcVar ViewScale \f "%sn">%)
 71
     4
 62
   256
 62
   257
300
ANSI31
 40
1.0
 90
        0
290
     0
290
     0
 90
        6
 40
0.0
 40
1.570796326794896
 40
0.2617993877991494
 40
1.308996938995747
 40
-0.2617993877991494
 40
1.832595714594046
  0
TABLESTYLE
  5
1146D
102
{ACAD_XDICTIONARY
360
14D23
102
}
102
{ACAD_REACTORS
330
1146C
102
}
330
1146C
100
AcDbTableStyle
  3
Standard
 70
     0
 71
     0
 40
1.5
 41
1.0
280
     0
281
     0
  7
STANDARD
140
3.2
170
     5
 62
     0
 63
     7
283
     0
274
    -2
284
     1
 64
     0
275
    -2
285
     1
 65
     0
276
    -2
286
     1
 66
     0
277
    -2
287
     1
 67
     0
278
    -2
288
     1
 68
     0
279
    -2
289
     1
 69
     0
  7
STANDARD
140
3.2
170
     5
 62
     0
 63
     7
283
     0
274
    -2
284
     1
 64
     0
275
    -2
285
     1
 65
     0
276
    -2
286
     1
 66
     0
277
    -2
287
     1
 67
     0
278
    -2
288
     1
 68
     0
279
    -2
289
     1
 69
     0
  7
STANDARD
140
3.2
170
     5
 62
     0
 63
     7
283
     0
274
    -2
284
     1
 64
     0
275
    -2
285
     1
 65
     0
276
    -2
286
     1
 66
     0
277
    -2
287
     1
 67
     0
278
    -2
288
     1
 68
     0
279
    -2
289
     1
 69
     0
  0
TABLESTYLE
  5
1224F
102
{ACAD_XDICTIONARY
360
14D25
102
}
102
{ACAD_REACTORS
330
1146C
102
}
330
1146C
100
AcDbTableStyle
  3
Standard
 70
     1
 71
     0
 40
1.5
 41
1.5
280
     0
281
     0
  7
STANDARD
140
3.2
170
     5
 62
     0
 63
     7
283
     0
274
    -2
284
     1
 64
     0
275
    -2
285
     1
 65
     0
276
    -2
286
     1
 66
     0
277
    -2
287
     1
 67
     0
278
    -2
288
     1
 68
     0
279
    -2
289
     1
 69
     0
  7
STANDARD
140
6.0
170
     5
 62
     0
 63
     7
283
     0
274
    -2
284
     1
 64
     0
275
    -2
285
     1
 65
     0
276
    -2
286
     1
 66
     0
277
    -2
287
     1
 67
     0
278
    -2
288
     1
 68
     0
279
    -2
289
     1
 69
     0
  7
STANDARD
140
4.5
170
     5
 62
     0
 63
     7
283
     0
274
    -2
284
     1
 64
     0
275
    -2
285
     1
 65
     0
276
    -2
286
     1
 66
     0
277
    -2
287
     1
 67
     0
278
    -2
288
     1
 68
     0
279
    -2
289
     1
 69
     0
  0
VISUALSTYLE
  5
14CC1
102
{ACAD_XDICTIONARY
360
17699
102
}
102
{ACAD_REACTORS
330
14CBB
102
}
330
14CBB
100
AcDbVisualStyle
  2
2dWireframe
 70
     4
 71
     0
 72
     2
 73
     0
 90
        0
 40
-0.6
 41
-30.0
 62
     5
 63
     7
421
 16777215
 74
     1
 91
        4
 64
     7
 65
   257
 75
     1
175
     1
 42
1.0
 92
        0
 66
   257
 43
1.0
 76
     1
 77
     6
 78
     2
 67
     7
 79
     5
170
     0
171
     0
290
     0
174
     0
 93
        1
 44
0.0
173
     0
291
     0
 45
0.0
1001
ACAD
1000
AcDbSavedByObjectVersion
1070
     0
  0
VISUALSTYLE
  5
14CC3
102
{ACAD_XDICTIONARY
360
1769D
102
}
102
{ACAD_REACTORS
330
14CBB
102
}
330
14CBB
100
AcDbVisualStyle
  2
3D Hidden
 70
     6
 71
     1
 72
     2
 73
     2
 90
        0
 40
-0.6
 41
-30.0
 62
     5
 63
     7
421
 16777215
 74
     2
 91
        2
 64
     7
 65
   257
 75
     2
175
     1
 42
40.0
 92
        0
 66
   257
 43
1.0
 76
     1
 77
     6
 78
     2
 67
     7
 79
     3
170
     0
171
     0
290
     0
174
     0
 93
        1
 44
0.0
173
     0
291
     0
 45
0.0
1001
ACAD
1000
AcDbSavedByObjectVersion
1070
     0
  0
VISUALSTYLE
  5
14CC2
102
{ACAD_XDICTIONARY
360
1769B
102
}
102
{ACAD_REACTORS
330
14CBB
102
}
330
14CBB
100
AcDbVisualStyle
  2
3dWireframe
 70
     5
 71
     0
 72
     2
 73
     0
 90
        0
 40
-0.6
 41
-30.0
 62
     5
 63
     7
421
 16777215
 74
     1
 91
        4
 64
     7
 65
   257
 75
     1
175
     1
 42
1.0
 92
        0
 66
   257
 43
1.0
 76
     1
 77
     6
 78
     2
 67
     7
 79
     5
170
     0
171
     0
290
     0
174
     0
 93
        1
 44
0.0
173
     0
291
     0
 45
0.0
1001
ACAD
1000
AcDbSavedByObjectVersion
1070
     0
  0
VISUALSTYLE
  5
14CC0
102
{ACAD_XDICTIONARY
360
17697
102
}
102
{ACAD_REACTORS
330
14CBB
102
}
330
14CBB
100
AcDbVisualStyle
  2
Basic
 70
     7
 71
     1
 72
     0
 73
     1
 90
        0
 40
-0.6
 41
-30.0
 62
     5
 63
     7
421
 16777215
 74
     0
 91
        4
 64
     7
 65
   257
 75
     1
175
     1
 42
1.0
 92
        8
 66
     7
 43
1.0
 76
     1
 77
     6
 78
     2
 67
     7
 79
     5
170
     0
171
     0
290
     0
174
     0
 93
        1
 44
0.0
173
     0
291
     1
 45
0.0
1001
ACAD
1000
AcDbSavedByObjectVersion
1070
     0
  0
VISUALSTYLE
  5
14CC7
102
{ACAD_XDICTIONARY
360
176A5
102
}
102
{ACAD_REACTORS
330
14CBB
102
}
330
14CBB
100
AcDbVisualStyle
  2
Brighten
 70
    12
 71
     2
 72
     2
 73
     0
 90
        0
 40
-0.6
 41
-30.0
 62
     5
 63
     7
421
 16777215
 74
     1
 91
        4
 64
     7
 65
   257
 75
     1
175
     1
 42
1.0
 92
        8
 66
     7
 43
1.0
 76
     1
 77
     6
 78
     2
 67
     7
 79
     5
170
     0
171
     0
290
     0
174
     0
 93
        1
 44
50.0
173
     0
291
     1
 45
0.0
1001
ACAD
1000
AcDbSavedByObjectVersion
1070
     0
  0
VISUALSTYLE
  5
14CCB
102
{ACAD_XDICTIONARY
360
176AD
102
}
102
{ACAD_REACTORS
330
14CBB
102
}
330
14CBB
100
AcDbVisualStyle
  2
ColorChange
 70
    16
 71
     2
 72
     2
 73
     3
 90
        0
 40
-0.6
 41
-30.0
 62
     5
 63
     8
421
  8421504
 74
     1
 91
        4
 64
     7
 65
   257
 75
     1
175
     1
 42
1.0
 92
        8
 66
     8
424
  8421504
 43
1.0
 76
     1
 77
     6
 78
     2
 67
     7
 79
     5
170
     0
171
     0
290
     0
174
     0
 93
        1
 44
0.0
173
     0
291
     1
 45
0.0
1001
ACAD
1000
AcDbSavedByObjectVersion
1070
     0
  0
VISUALSTYLE
  5
14CC4
102
{ACAD_XDICTIONARY
360
1769F
102
}
102
{ACAD_REACTORS
330
14CBB
102
}
330
14CBB
100
AcDbVisualStyle
  2
Conceptual
 70
     9
 71
     3
 72
     2
 73
     0
 90
        0
 40
-0.6
 41
-30.0
 62
     5
 63
     7
421
 16777215
 74
     2
 91
        2
 64
     7
 65
   257
 75
     1
175
     1
 42
40.0
 92
        8
 66
     7
 43
1.0
 76
     1
 77
     6
 78
     2
 67
     7
 79
     3
170
     0
171
     0
290
     0
174
     0
 93
        1
 44
0.0
173
     0
291
     0
 45
0.0
1001
ACAD
1000
AcDbSavedByObjectVersion
1070
     0
  0
VISUALSTYLE
  5
14CC6
102
{ACAD_XDICTIONARY
360
176A3
102
}
102
{ACAD_REACTORS
330
14CBB
102
}
330
14CBB
100
AcDbVisualStyle
  2
Dim
 70
    11
 71
     2
 72
     2
 73
     0
 90
        0
 40
-0.6
 41
-30.0
 62
     5
 63
     7
421
 16777215
 74
     1
 91
        4
 64
     7
 65
   257
 75
     1
175
     1
 42
1.0
 92
        8
 66
     7
 43
1.0
 76
     1
 77
     6
 78
     2
 67
     7
 79
     5
170
     0
171
     0
290
     0
174
     0
 93
        1
 44
-50.0
173
     0
291
     1
 45
0.0
1001
ACAD
1000
AcDbSavedByObjectVersion
1070
     0
  0
VISUALSTYLE
  5
17584
102
{ACAD_XDICTIONARY
360
176B9
102
}
102
{ACAD_REACTORS
330
14CBB
102
}
330
14CBB
100
AcDbVisualStyle
  2
EdgeColorOff
 70
    22
 71
     2
 72
     2
 73
     0
 90
        0
 40
-0.6
 41
-30.0
 62
     5
 63
     7
421
 16777215
 74
     1
 91
        4
 64
     7
 65
   257
 75
     1
175
     1
 42
1.0
 92
        8
 66
     7
 43
1.0
 76
     1
 77
     6
 78
     2
 67
     7
 79
     5
170
     0
171
     0
290
     0
174
     0
 93
        1
 44
0.0
173
     0
291
     1
 45
0.0
1001
ACAD
1000
AcDbSavedByObjectVersion
1070
     0
  0
VISUALSTYLE
  5
14CCA
102
{ACAD_XDICTIONARY
360
176AB
102
}
102
{ACAD_REACTORS
330
14CBB
102
}
330
14CBB
100
AcDbVisualStyle
  2
Facepattern
 70
    15
 71
     2
 72
     2
 73
     0
 90
        0
 40
-0.6
 41
-30.0
 62
     5
 63
     7
421
 16777215
 74
     1
 91
        4
 64
     7
 65
   257
 75
     1
175
     1
 42
1.0
 92
        8
 66
     7
 43
1.0
 76
     1
 77
     6
 78
     2
 67
     7
 79
     5
170
     0
171
     0
290
     0
174
     0
 93
        1
 44
0.0
173
     0
291
     1
 45
0.0
1001
ACAD
1000
AcDbSavedByObjectVersion
1070
     0
  0
VISUALSTYLE
  5
14CBC
102
{ACAD_XDICTIONARY
360
1768F
102
}
102
{ACAD_REACTORS
330
14CBB
102
}
330
14CBB
100
AcDbVisualStyle
  2
Flat
 70
     0
 71
     2
 72
     1
 73
     1
 90
        2
 40
-0.6
 41
30.0
 62
     5
 63
     7
421
 16777215
 74
     0
 91
        4
 64
     7
 65
   257
 75
     1
175
     1
 42
1.0
 92
        8
 66
     7
 43
1.0
 76
     1
 77
     6
 78
     2
 67
     7
 79
     5
170
     0
171
     0
290
     0
174
     0
 93
       13
 44
0.0
173
     0
291
     1
 45
0.0
1001
ACAD
1000
AcDbSavedByObjectVersion
1070
     0
  0
VISUALSTYLE
  5
14CBD
102
{ACAD_XDICTIONARY
360
17691
102
}
102
{ACAD_REACTORS
330
14CBB
102
}
330
14CBB
100
AcDbVisualStyle
  2
FlatWithEdges
 70
     1
 71
     2
 72
     1
 73
     1
 90
        2
 40
-0.6
 41
30.0
 62
     5
 63
     7
421
 16777215
 74
     1
 91
        4
 64
     7
 65
   257
 75
     1
175
     1
 42
1.0
 92
        0
 66
   257
 43
1.0
 76
     1
 77
     6
 78
     2
 67
     7
 79
     5
170
     0
171
     0
290
     0
174
     0
 93
       13
 44
0.0
173
     0
291
     1
 45
0.0
1001
ACAD
1000
AcDbSavedByObjectVersion
1070
     0
  0
VISUALSTYLE
  5
14CBE
102
{ACAD_XDICTIONARY
360
17693
102
}
102
{ACAD_REACTORS
330
14CBB
102
}
330
14CBB
100
AcDbVisualStyle
  2
Gouraud
 70
     2
 71
     2
 72
     2
 73
     1
 90
        2
 40
-0.6
 41
30.0
 62
     5
 63
     7
421
 16777215
 74
     0
 91
        4
 64
     7
 65
   257
 75
     1
175
     1
 42
1.0
 92
        0
 66
     7
 43
1.0
 76
     1
 77
     6
 78
     2
 67
     7
 79
     5
170
     0
171
     0
290
     0
174
     0
 93
       13
 44
0.0
173
     0
291
     1
 45
0.0
1001
ACAD
1000
AcDbSavedByObjectVersion
1070
     0
  0
VISUALSTYLE
  5
14CBF
102
{ACAD_XDICTIONARY
360
17695
102
}
102
{ACAD_REACTORS
330
14CBB
102
}
330
14CBB
100
AcDbVisualStyle
  2
GouraudWithEdges
 70
     3
 71
     2
 72
     2
 73
     1
 90
        2
 40
-0.6
 41
30.0
 62
     5
 63
     7
421
 16777215
 74
     1
 91
        4
 64
     7
 65
   257
 75
     1
175
     1
 42
1.0
 92
        0
 66
   257
 43
1.0
 76
     1
 77
     6
 78
     2
 67
     7
 79
     5
170
     0
171
     0
290
     0
174
     0
 93
       13
 44
0.0
173
     0
291
     1
 45
0.0
1001
ACAD
1000
AcDbSavedByObjectVersion
1070
     0
  0
VISUALSTYLE
  5
175CA
102
{ACAD_XDICTIONARY
360
176BD
102
}
102
{ACAD_REACTORS
330
14CBB
102
}
330
14CBB
100
AcDbVisualStyle
  2
Hidden
 70
     6
 71
     1
 72
     2
 73
     2
 90
        0
 40
-0.6
 41
-30.0
 62
     5
 63
     7
421
 16777215
 74
     2
 91
        2
 64
     7
 65
   257
 75
     2
175
     1
 42
40.0
 92
        0
 66
   257
 43
1.0
 76
     1
 77
     6
 78
     2
 67
     7
 79
     3
170
     0
171
     0
290
     0
174
     0
 93
        1
 44
0.0
173
     0
291
     0
 45
0.0
1001
ACAD
1000
AcDbSavedByObjectVersion
1070
     0
  0
VISUALSTYLE
  5
17582
102
{ACAD_XDICTIONARY
360
176B5
102
}
102
{ACAD_REACTORS
330
14CBB
102
}
330
14CBB
100
AcDbVisualStyle
  2
JitterOff
 70
    20
 71
     2
 72
     2
 73
     0
 90
        0
 40
-0.6
 41
-30.0
 62
     5
 63
     7
421
 16777215
 74
     1
 91
        4
 64
     7
 65
   257
 75
     1
175
     1
 42
1.0
 92
       10
 66
     7
 43
1.0
 76
     1
 77
     6
 78
     2
 67
     7
 79
     5
170
     0
171
     0
290
     0
174
     0
 93
        1
 44
0.0
173
     0
291
     1
 45
0.0
1001
ACAD
1000
AcDbSavedByObjectVersion
1070
     0
  0
VISUALSTYLE
  5
14CC9
102
{ACAD_XDICTIONARY
360
176A9
102
}
102
{ACAD_REACTORS
330
14CBB
102
}
330
14CBB
100
AcDbVisualStyle
  2
Linepattern
 70
    14
 71
     2
 72
     2
 73
     0
 90
        0
 40
-0.6
 41
-30.0
 62
     5
 63
     7
421
 16777215
 74
     1
 91
        4
 64
     7
 65
   257
 75
     7
175
     7
 42
1.0
 92
        8
 66
     7
 43
1.0
 76
     1
 77
     6
 78
     2
 67
     7
 79
     5
170
     0
171
     0
290
     0
174
     0
 93
        1
 44
0.0
173
     0
291
     1
 45
0.0
1001
ACAD
1000
AcDbSavedByObjectVersion
1070
     0
  0
VISUALSTYLE
  5
17583
102
{ACAD_XDICTIONARY
360
176B7
102
}
102
{ACAD_REACTORS
330
14CBB
102
}
330
14CBB
100
AcDbVisualStyle
  2
OverhangOff
 70
    21
 71
     2
 72
     2
 73
     0
 90
        0
 40
-0.6
 41
-30.0
 62
     5
 63
     7
421
 16777215
 74
     1
 91
        4
 64
     7
 65
   257
 75
     1
175
     1
 42
1.0
 92
        9
 66
     7
 43
1.0
 76
     1
 77
     6
 78
     2
 67
     7
 79
     5
170
     0
171
     0
290
     0
174
     0
 93
        1
 44
0.0
173
     0
291
     1
 45
0.0
1001
ACAD
1000
AcDbSavedByObjectVersion
1070
     0
  0
VISUALSTYLE
  5
14CC5
102
{ACAD_XDICTIONARY
360
176A1
102
}
102
{ACAD_REACTORS
330
14CBB
102
}
330
14CBB
100
AcDbVisualStyle
  2
Realistic
 70
     8
 71
     2
 72
     2
 73
     0
 90
        0
 40
-0.6
 41
-30.0
 62
     5
 63
     7
421
 16777215
 74
     1
 91
        0
 64
     7
 65
   257
 75
     1
175
     1
 42
1.0
 92
        8
 66
     8
424
  7895160
 43
1.0
 76
     1
 77
     6
 78
     2
 67
     7
 79
     5
170
     0
171
     0
290
     0
174
     0
 93
       13
 44
0.0
173
     0
291
     0
 45
0.0
1001
ACAD
1000
AcDbSavedByObjectVersion
1070
     0
  0
VISUALSTYLE
  5
175CF
102
{ACAD_XDICTIONARY
360
176C7
102
}
102
{ACAD_REACTORS
330
14CBB
102
}
330
14CBB
100
AcDbVisualStyle
  2
Shaded
 70
    27
 71
     2
 72
     2
 73
     1
 90
        2
 40
-0.6
 41
30.0
 62
     5
 63
     7
421
 16777215
 74
     0
 91
        4
 64
     7
 65
   257
 75
     1
175
     1
 42
1.0
 92
        8
 66
   257
 43
1.0
 76
     1
 77
     6
 78
     2
 67
     8
425
  7895160
 79
     3
170
     0
171
     0
290
     0
174
     0
 93
        5
 44
0.0
173
     0
291
     0
 45
0.0
1001
ACAD
1000
AcDbSavedByObjectVersion
1070
     0
  0
VISUALSTYLE
  5
175CE
102
{ACAD_XDICTIONARY
360
176C5
102
}
102
{ACAD_REACTORS
330
14CBB
102
}
330
14CBB
100
AcDbVisualStyle
  2
Shaded with edges
 70
    26
 71
     2
 72
     2
 73
     1
 90
        2
 40
-0.6
 41
30.0
 62
     5
 63
     7
421
 16777215
 74
     1
 91
        2
 64
     7
 65
   257
 75
     2
175
     1
 42
1.0
 92
        8
 66
   257
 43
1.0
 76
     1
 77
     6
 78
     2
 67
     7
 79
     3
170
     0
171
     0
290
     0
174
     0
 93
        5
 44
0.0
173
     0
291
     0
 45
0.0
1001
ACAD
1000
AcDbSavedByObjectVersion
1070
     0
  0
VISUALSTYLE
  5
175CB
102
{ACAD_XDICTIONARY
360
176BF
102
}
102
{ACAD_REACTORS
330
14CBB
102
}
330
14CBB
100
AcDbVisualStyle
  2
Shades of Gray
 70
    23
 71
     2
 72
     2
 73
     3
 90
        0
 40
-0.6
 41
-30.0
 62
     5
 63
     7
421
 16777215
 74
     2
 91
        2
 64
     7
 65
     7
 75
     1
175
     1
 42
40.0
 92
        8
 66
     7
 43
1.0
 76
     1
 77
     6
 78
     2
 67
     7
 79
     3
170
     0
171
     0
290
     0
174
     0
 93
        1
 44
0.0
173
     0
291
     0
 45
0.0
1001
ACAD
1000
AcDbSavedByObjectVersion
1070
     0
  0
VISUALSTYLE
  5
175CC
102
{ACAD_XDICTIONARY
360
176C1
102
}
102
{ACAD_REACTORS
330
14CBB
102
}
330
14CBB
100
AcDbVisualStyle
  2
Sketchy
 70
    24
 71
     1
 72
     2
 73
     2
 90
        0
 40
-0.6
 41
-30.0
 62
     5
 63
     7
421
 16777215
 74
     2
 91
        2
 64
     7
 65
     7
 75
     1
175
     1
 42
40.0
 92
       11
 66
     7
 43
1.0
 76
     1
 77
     6
 78
     2
 67
     7
 79
     6
170
     0
171
     0
290
     0
174
     0
 93
        1
 44
0.0
173
     0
291
     0
 45
0.0
1001
ACAD
1000
AcDbSavedByObjectVersion
1070
     0
  0
VISUALSTYLE
  5
14CC8
102
{ACAD_XDICTIONARY
360
176A7
102
}
102
{ACAD_REACTORS
330
14CBB
102
}
330
14CBB
100
AcDbVisualStyle
  2
Thicken
 70
    13
 71
     2
 72
     2
 73
     0
 90
        0
 40
-0.6
 41
-30.0
 62
     5
 63
     7
421
 16777215
 74
     1
 91
        4
 64
     7
 65
   257
 75
     1
175
     1
 42
1.0
 92
       12
 66
     7
 43
1.0
 76
     1
 77
     6
 78
     2
 67
     7
 79
     5
170
     0
171
     0
290
     0
174
     0
 93
        1
 44
0.0
173
     0
291
     1
 45
0.0
1001
ACAD
1000
AcDbSavedByObjectVersion
1070
     0
  0
VISUALSTYLE
  5
175C9
102
{ACAD_XDICTIONARY
360
176BB
102
}
102
{ACAD_REACTORS
330
14CBB
102
}
330
14CBB
100
AcDbVisualStyle
  2
Wireframe
 70
     5
 71
     0
 72
     2
 73
     0
 90
        0
 40
-0.6
 41
-30.0
 62
     5
 63
     7
421
 16777215
 74
     1
 91
        4
 64
     7
 65
   257
 75
     1
175
     1
 42
1.0
 92
        0
 66
   257
 43
1.0
 76
     1
 77
     6
 78
     2
 67
     7
 79
     3
170
     0
171
     0
290
     0
174
     0
 93
        1
 44
0.0
173
     0
291
     0
 45
0.0
1001
ACAD
1000
AcDbSavedByObjectVersion
1070
     0
  0
VISUALSTYLE
  5
175CD
102
{ACAD_XDICTIONARY
360
176C3
102
}
102
{ACAD_REACTORS
330
14CBB
102
}
330
14CBB
100
AcDbVisualStyle
  2
X-Ray
 70
    25
 71
     2
 72
     2
 73
     1
 90
        1
 40
0.5
 41
-30.0
 62
     5
 63
     7
421
 16777215
 74
     1
 91
        0
 64
     7
 65
   257
 75
     1
175
     1
 42
1.0
 92
        8
 66
     7
 43
1.0
 76
     1
 77
     6
 78
     2
 67
     7
 79
     3
170
     0
171
     0
290
     0
174
     0
 93
       13
 44
0.0
173
     0
291
     0
 45
0.0
1001
ACAD
1000
AcDbSavedByObjectVersion
1070
     0
  0
DICTIONARYVAR
  5
14D2A
102
{ACAD_REACTORS
330
30
102
}
330
30
100
DictionaryVariables
280
     0
  1
1:1
  0
DICTIONARYVAR
  5
14D28
102
{ACAD_REACTORS
330
30
102
}
330
30
100
DictionaryVariables
280
     0
  1
STANDARD
  0
DICTIONARYVAR
  5
115A1
102
{ACAD_REACTORS
330
30
102
}
330
30
100
DictionaryVariables
280
     0
  1
STANDARD
  0
DICTIONARYVAR
  5
1763B
102
{ACAD_REACTORS
330
30
102
}
330
30
100
DictionaryVariables
280
     0
  1
Metric50
  0
DICTIONARYVAR
  5
1763C
102
{ACAD_REACTORS
330
30
102
}
330
30
100
DictionaryVariables
280
     0
  1
Metric50
  0
DICTIONARYVAR
  5
1136E
102
{ACAD_REACTORS
330
30
102
}
330
30
100
DictionaryVariables
280
     0
  1
1
  0
DICTIONARYVAR
  5
31
102
{ACAD_REACTORS
330
30
102
}
330
30
100
DictionaryVariables
280
     0
  1
1
  0
DICTIONARYVAR
  5
175C6
102
{ACAD_REACTORS
330
30
102
}
330
30
100
DictionaryVariables
280
     0
  1
1
  0
DICTIONARYVAR
  5
175C7
102
{ACAD_REACTORS
330
30
102
}
330
30
100
DictionaryVariables
280
     0
  1
15
  0
DICTIONARYVAR
  5
14D2B
102
{ACAD_REACTORS
330
30
102
}
330
30
100
DictionaryVariables
280
     0
  1
0
  0
DICTIONARYVAR
  5
14D29
102
{ACAD_REACTORS
330
30
102
}
330
30
100
DictionaryVariables
280
     0
  1
0
  0
DICTIONARYVAR
  5
1767D
102
{ACAD_REACTORS
330
30
102
}
330
30
100
DictionaryVariables
280
     0
  1
1
  0
DICTIONARY
  5
1768C
102
{ACAD_REACTORS
330
1768A
102
}
330
1768A
100
AcDbDictionary
281
     1
  0
DICTIONARY
  5
1768B
102
{ACAD_REACTORS
330
1768A
102
}
330
1768A
100
AcDbDictionary
281
     1
  3
2481638095824
350
17685
  3
2481638095840
350
17686
  3
2481638095856
350
17687
  3
2481638095872
350
17688
  3
2481638095888
350
17689
  0
DICTIONARY
  5
1398C
102
{ACAD_REACTORS
330
43
102
}
330
43
100
AcDbDictionary
281
     1
  0
DICTIONARY
  5
313
102
{ACAD_REACTORS
330
43
102
}
330
43
100
AcDbDictionary
281
     1
  0
XRECORD
  5
11488
102
{ACAD_REACTORS
330
43
102
}
330
43
100
AcDbXrecord
280
     1
 90
-1023410169
  0
DICTIONARY
  5
176CB
330
175D3
100
AcDbDictionary
280
     1
281
     1
  3
ACAD_XREC_ROUNDTRIP
360
176CC
  0
DICTIONARY
  5
175C3
330
22
100
AcDbDictionary
280
     1
281
     1
  0
DICTIONARY
  5
12B13
330
1E
100
AcDbDictionary
280
     1
281
     1
  0
DICTIONARY
  5
12B1D
330
26
100
AcDbDictionary
280
     1
281
     1
  0
DICTIONARY
  5
176B1
330
14CEF
100
AcDbDictionary
280
     1
281
     1
  3
ACAD_XREC_ROUNDTRIP
360
176B2
  0
DICTIONARY
  5
176AF
330
14CEE
100
AcDbDictionary
280
     1
281
     1
  3
ACAD_XREC_ROUNDTRIP
360
176B0
  0
DICTIONARY
  5
176B3
330
14CF0
100
AcDbDictionary
280
     1
281
     1
  3
ACAD_XREC_ROUNDTRIP
360
176B4
  0
DICTIONARY
  5
176C9
330
175D1
100
AcDbDictionary
280
     1
281
     1
  3
ACAD_XREC_ROUNDTRIP
360
176CA
  0
DICTIONARY
  5
14D23
330
1146D
100
AcDbDictionary
280
     1
281
     1
  3
ACAD_ROUNDTRIP_2008_TABLESTYLE_CELLSTYLEMAP
360
1767E
  3
ACAD_XREC_ROUNDTRIP
360
1768D
  0
DICTIONARY
  5
14D25
330
1224F
100
AcDbDictionary
280
     1
281
     1
  3
ACAD_ROUNDTRIP_2008_TABLESTYLE_CELLSTYLEMAP
360
1767F
  3
ACAD_XREC_ROUNDTRIP
360
1768E
  0
DICTIONARY
  5
17699
330
14CC1
100
AcDbDictionary
280
     1
281
     1
  3
ACAD_XREC_ROUNDTRIP
360
1769A
  0
DICTIONARY
  5
1769D
330
14CC3
100
AcDbDictionary
280
     1
281
     1
  3
ACAD_XREC_ROUNDTRIP
360
1769E
  0
DICTIONARY
  5
1769B
330
14CC2
100
AcDbDictionary
280
     1
281
     1
  3
ACAD_XREC_ROUNDTRIP
360
1769C
  0
DICTIONARY
  5
17697
330
14CC0
100
AcDbDictionary
280
     1
281
     1
  3
ACAD_XREC_ROUNDTRIP
360
17698
  0
DICTIONARY
  5
176A5
330
14CC7
100
AcDbDictionary
280
     1
281
     1
  3
ACAD_XREC_ROUNDTRIP
360
176A6
  0
DICTIONARY
  5
176AD
330
14CCB
100
AcDbDictionary
280
     1
281
     1
  3
ACAD_XREC_ROUNDTRIP
360
176AE
  0
DICTIONARY
  5
1769F
330
14CC4
100
AcDbDictionary
280
     1
281
     1
  3
ACAD_XREC_ROUNDTRIP
360
176A0
  0
DICTIONARY
  5
176A3
330
14CC6
100
AcDbDictionary
280
     1
281
     1
  3
ACAD_XREC_ROUNDTRIP
360
176A4
  0
DICTIONARY
  5
176B9
330
17584
100
AcDbDictionary
280
     1
281
     1
  3
ACAD_XREC_ROUNDTRIP
360
176BA
  0
DICTIONARY
  5
176AB
330
14CCA
100
AcDbDictionary
280
     1
281
     1
  3
ACAD_XREC_ROUNDTRIP
360
176AC
  0
DICTIONARY
  5
1768F
330
14CBC
100
AcDbDictionary
280
     1
281
     1
  3
ACAD_XREC_ROUNDTRIP
360
17690
  0
DICTIONARY
  5
17691
330
14CBD
100
AcDbDictionary
280
     1
281
     1
  3
ACAD_XREC_ROUNDTRIP
360
17692
  0
DICTIONARY
  5
17693
330
14CBE
100
AcDbDictionary
280
     1
281
     1
  3
ACAD_XREC_ROUNDTRIP
360
17694
  0
DICTIONARY
  5
17695
330
14CBF
100
AcDbDictionary
280
     1
281
     1
  3
ACAD_XREC_ROUNDTRIP
360
17696
  0
DICTIONARY
  5
176BD
330
175CA
100
AcDbDictionary
280
     1
281
     1
  3
ACAD_XREC_ROUNDTRIP
360
176BE
  0
DICTIONARY
  5
176B5
330
17582
100
AcDbDictionary
280
     1
281
     1
  3
ACAD_XREC_ROUNDTRIP
360
176B6
  0
DICTIONARY
  5
176A9
330
14CC9
100
AcDbDictionary
280
     1
281
     1
  3
ACAD_XREC_ROUNDTRIP
360
176AA
  0
DICTIONARY
  5
176B7
330
17583
100
AcDbDictionary
280
     1
281
     1
  3
ACAD_XREC_ROUNDTRIP
360
176B8
  0
DICTIONARY
  5
176A1
330
14CC5
100
AcDbDictionary
280
     1
281
     1
  3
ACAD_XREC_ROUNDTRIP
360
176A2
  0
DICTIONARY
  5
176C7
330
175CF
100
AcDbDictionary
280
     1
281
     1
  3
ACAD_XREC_ROUNDTRIP
360
176C8
  0
DICTIONARY
  5
176C5
330
175CE
100
AcDbDictionary
280
     1
281
     1
  3
ACAD_XREC_ROUNDTRIP
360
176C6
  0
DICTIONARY
  5
176BF
330
175CB
100
AcDbDictionary
280
     1
281
     1
  3
ACAD_XREC_ROUNDTRIP
360
176C0
  0
DICTIONARY
  5
176C1
330
175CC
100
AcDbDictionary
280
     1
281
     1
  3
ACAD_XREC_ROUNDTRIP
360
176C2
  0
DICTIONARY
  5
176A7
330
14CC8
100
AcDbDictionary
280
     1
281
     1
  3
ACAD_XREC_ROUNDTRIP
360
176A8
  0
DICTIONARY
  5
176BB
330
175C9
100
AcDbDictionary
280
     1
281
     1
  3
ACAD_XREC_ROUNDTRIP
360
176BC
  0
DICTIONARY
  5
176C3
330
175CD
100
AcDbDictionary
280
     1
281
     1
  3
ACAD_XREC_ROUNDTRIP
360
176C4
  0
XRECORD
  5
17685
102
{ACAD_REACTORS
330
1768B
102
}
330
1768B
100
AcDbXrecord
280
     1
  1
AcDb_Thumbnail_Schema
102
{ATTRRECORD
341
17686
  2
AcDbDs::TreatedAsObjectData
280
     1
291
     1
102
ATTRRECORD}
102
{ATTRRECORD
341
17687
  2
AcDbDs::Legacy
280
     1
291
     1
102
ATTRRECORD}
  2
AcDbDs::ID
280
    10
 91
        8
102
{ATTRRECORD
341
17688
  2
AcDs:Indexable
280
     1
291
     1
102
ATTRRECORD}
102
{ATTRRECORD
341
17689
  2
AcDbDs::HandleAttribute
280
     7
282
     1
102
ATTRRECORD}
  2
Thumbnail_Data
280
    15
 91
        0
  0
XRECORD
  5
17686
102
{ACAD_REACTORS
330
1768B
102
}
330
1768B
100
AcDbXrecord
280
     1
  1
AcDbDs::TreatedAsObjectDataSchema
  2
AcDbDs::TreatedAsObjectData
280
     1
 91
        0
  0
XRECORD
  5
17687
102
{ACAD_REACTORS
330
1768B
102
}
330
1768B
100
AcDbXrecord
280
     1
  1
AcDbDs::LegacySchema
  2
AcDbDs::Legacy
280
     1
 91
        0
  0
XRECORD
  5
17688
102
{ACAD_REACTORS
330
1768B
102
}
330
1768B
100
AcDbXrecord
280
     1
  1
AcDbDs::IndexedPropertySchema
  2
AcDs:Indexable
280
     1
 91
        0
  0
XRECORD
  5
17689
102
{ACAD_REACTORS
330
1768B
102
}
330
1768B
100
AcDbXrecord
280
     1
  1
AcDbDs::HandleAttributeSchema
  2
AcDbDs::HandleAttribute
280
     7
 91
        1
284
     1
  0
XRECORD
  5
176CC
102
{ACAD_REACTORS
330
176CB
102
}
330
176CB
100
AcDbXrecord
280
     1
102
DISPLAYNAME
  1
Metric50
102
FLAGS
 90
        0
  0
XRECORD
  5
176B2
102
{ACAD_REACTORS
330
176B1
102
}
330
176B1
100
AcDbXrecord
280
     1
102
MATERIAL
148
0.0
149
0.0
149
0.0
 93
        0
 94
      127
282
     0
 72
     1
 77
     1
171
     1
175
     1
179
     1
273
     0
  0
XRECORD
  5
176B0
102
{ACAD_REACTORS
330
176AF
102
}
330
176AF
100
AcDbXrecord
280
     1
102
MATERIAL
148
0.0
149
0.0
149
0.0
 93
        0
 94
      127
282
     0
 72
     1
 77
     1
171
     1
175
     1
179
     1
273
     0
  0
XRECORD
  5
176B4
102
{ACAD_REACTORS
330
176B3
102
}
330
176B3
100
AcDbXrecord
280
     1
102
MATERIAL
148
0.0
149
0.0
149
0.0
 93
        0
 94
      127
282
     0
 72
     1
 77
     1
171
     1
175
     1
179
     1
273
     0
  0
XRECORD
  5
176CA
102
{ACAD_REACTORS
330
176C9
102
}
330
176C9
100
AcDbXrecord
280
     1
102
DISPLAYNAME
  1
Metric50
102
FLAGS
 90
        0
  0
CELLSTYLEMAP
  5
1767E
102
{ACAD_REACTORS
330
14D23
102
}
330
14D23
100
AcDbCellStyleMap
 90
        3
300
CELLSTYLE
  1
TABLEFORMAT_BEGIN
 90
        5
170
     1
 91
        0
 92
    32768
 62
   257
 93
        1
300
CONTENTFORMAT
  1
CONTENTFORMAT_BEGIN
 90
        0
 91
        0
 92
        4
 93
        0
300

 40
0.0
140
1.0
 94
        5
 62
     0
340
11
144
3.2
309
CONTENTFORMAT_END
171
     1
301
MARGIN
  1
CELLMARGIN_BEGIN
 40
1.0
 40
1.5
 40
1.0
 40
1.5
 40
0.18
 40
0.18
309
CELLMARGIN_END
 94
        6
 95
        1
302
GRIDFORMAT
  1
GRIDFORMAT_BEGIN
 90
        0
 91
        1
 62
     0
 92
       -2
340
0
 93
        0
 40
0.045
309
GRIDFORMAT_END
 95
        2
302
GRIDFORMAT
  1
GRIDFORMAT_BEGIN
 90
        0
 91
        1
 62
     0
 92
       -2
340
0
 93
        0
 40
0.045
309
GRIDFORMAT_END
 95
        4
302
GRIDFORMAT
  1
GRIDFORMAT_BEGIN
 90
        0
 91
        1
 62
     0
 92
       -2
340
0
 93
        0
 40
0.045
309
GRIDFORMAT_END
 95
        8
302
GRIDFORMAT
  1
GRIDFORMAT_BEGIN
 90
        0
 91
        1
 62
     0
 92
       -2
340
0
 93
        0
 40
0.045
309
GRIDFORMAT_END
 95
       16
302
GRIDFORMAT
  1
GRIDFORMAT_BEGIN
 90
        0
 91
        1
 62
     0
 92
       -2
340
0
 93
        0
 40
0.045
309
GRIDFORMAT_END
 95
       32
302
GRIDFORMAT
  1
GRIDFORMAT_BEGIN
 90
        0
 91
        1
 62
     0
 92
       -2
340
0
 93
        0
 40
0.045
309
GRIDFORMAT_END
309
TABLEFORMAT_END
  1
CELLSTYLE_BEGIN
 90
        1
 91
        1
300
_TITLE
309
CELLSTYLE_END
300
CELLSTYLE
  1
TABLEFORMAT_BEGIN
 90
        5
170
     1
 91
        0
 92
        0
 62
   257
 93
        1
300
CONTENTFORMAT
  1
CONTENTFORMAT_BEGIN
 90
        0
 91
        0
 92
        4
 93
        0
300

 40
0.0
140
1.0
 94
        5
 62
     0
340
11
144
3.2
309
CONTENTFORMAT_END
171
     1
301
MARGIN
  1
CELLMARGIN_BEGIN
 40
1.0
 40
1.5
 40
1.0
 40
1.5
 40
0.18
 40
0.18
309
CELLMARGIN_END
 94
        6
 95
        1
302
GRIDFORMAT
  1
GRIDFORMAT_BEGIN
 90
        0
 91
        1
 62
     0
 92
       -2
340
0
 93
        0
 40
0.045
309
GRIDFORMAT_END
 95
        2
302
GRIDFORMAT
  1
GRIDFORMAT_BEGIN
 90
        0
 91
        1
 62
     0
 92
       -2
340
0
 93
        0
 40
0.045
309
GRIDFORMAT_END
 95
        4
302
GRIDFORMAT
  1
GRIDFORMAT_BEGIN
 90
        0
 91
        1
 62
     0
 92
       -2
340
0
 93
        0
 40
0.045
309
GRIDFORMAT_END
 95
        8
302
GRIDFORMAT
  1
GRIDFORMAT_BEGIN
 90
        0
 91
        1
 62
     0
 92
       -2
340
0
 93
        0
 40
0.045
309
GRIDFORMAT_END
 95
       16
302
GRIDFORMAT
  1
GRIDFORMAT_BEGIN
 90
        0
 91
        1
 62
     0
 92
       -2
340
0
 93
        0
 40
0.045
309
GRIDFORMAT_END
 95
       32
302
GRIDFORMAT
  1
GRIDFORMAT_BEGIN
 90
        0
 91
        1
 62
     0
 92
       -2
340
0
 93
        0
 40
0.045
309
GRIDFORMAT_END
309
TABLEFORMAT_END
  1
CELLSTYLE_BEGIN
 90
        2
 91
        1
300
_HEADER
309
CELLSTYLE_END
300
CELLSTYLE
  1
TABLEFORMAT_BEGIN
 90
        5
170
     1
 91
        0
 92
        0
 62
   257
 93
        1
300
CONTENTFORMAT
  1
CONTENTFORMAT_BEGIN
 90
        0
 91
        0
 92
        4
 93
        0
300

 40
0.0
140
1.0
 94
        5
 62
     0
340
11
144
3.2
309
CONTENTFORMAT_END
171
     1
301
MARGIN
  1
CELLMARGIN_BEGIN
 40
1.0
 40
1.5
 40
1.0
 40
1.5
 40
0.18
 40
0.18
309
CELLMARGIN_END
 94
        6
 95
        1
302
GRIDFORMAT
  1
GRIDFORMAT_BEGIN
 90
        0
 91
        1
 62
     0
 92
       -2
340
0
 93
        0
 40
0.045
309
GRIDFORMAT_END
 95
        2
302
GRIDFORMAT
  1
GRIDFORMAT_BEGIN
 90
        0
 91
        1
 62
     0
 92
       -2
340
0
 93
        0
 40
0.045
309
GRIDFORMAT_END
 95
        4
302
GRIDFORMAT
  1
GRIDFORMAT_BEGIN
 90
        0
 91
        1
 62
     0
 92
       -2
340
0
 93
        0
 40
0.045
309
GRIDFORMAT_END
 95
        8
302
GRIDFORMAT
  1
GRIDFORMAT_BEGIN
 90
        0
 91
        1
 62
     0
 92
       -2
340
0
 93
        0
 40
0.045
309
GRIDFORMAT_END
 95
       16
302
GRIDFORMAT
  1
GRIDFORMAT_BEGIN
 90
        0
 91
        1
 62
     0
 92
       -2
340
0
 93
        0
 40
0.045
309
GRIDFORMAT_END
 95
       32
302
GRIDFORMAT
  1
GRIDFORMAT_BEGIN
 90
        0
 91
        1
 62
     0
 92
       -2
340
0
 93
        0
 40
0.045
309
GRIDFORMAT_END
309
TABLEFORMAT_END
  1
CELLSTYLE_BEGIN
 90
        3
 91
        2
300
_DATA
309
CELLSTYLE_END
  0
XRECORD
  5
1768D
102
{ACAD_REACTORS
330
14D23
102
}
330
14D23
100
AcDbXrecord
280
     1
102
ACAD_ROUNDTRIP_PRE2007_TABLESTYLE
 90
        4
 91
        0
  1

 92
        4
 93
        0
  2

 94
        4
 95
        0
  3

  0
CELLSTYLEMAP
  5
1767F
102
{ACAD_REACTORS
330
14D25
102
}
330
14D25
100
AcDbCellStyleMap
 90
        3
300
CELLSTYLE
  1
TABLEFORMAT_BEGIN
 90
        5
170
     1
 91
        0
 92
    32768
 62
   257
 93
        1
300
CONTENTFORMAT
  1
CONTENTFORMAT_BEGIN
 90
        0
 91
        0
 92
        4
 93
        0
300

 40
0.0
140
1.0
 94
        5
 62
     0
340
11
144
6.0
309
CONTENTFORMAT_END
171
     1
301
MARGIN
  1
CELLMARGIN_BEGIN
 40
1.5
 40
1.5
 40
1.5
 40
1.5
 40
0.18
 40
0.18
309
CELLMARGIN_END
 94
        6
 95
        1
302
GRIDFORMAT
  1
GRIDFORMAT_BEGIN
 90
        0
 91
        1
 62
     0
 92
       -2
340
0
 93
        0
 40
0.045
309
GRIDFORMAT_END
 95
        2
302
GRIDFORMAT
  1
GRIDFORMAT_BEGIN
 90
        0
 91
        1
 62
     0
 92
       -2
340
0
 93
        0
 40
0.045
309
GRIDFORMAT_END
 95
        4
302
GRIDFORMAT
  1
GRIDFORMAT_BEGIN
 90
        0
 91
        1
 62
     0
 92
       -2
340
0
 93
        0
 40
0.045
309
GRIDFORMAT_END
 95
        8
302
GRIDFORMAT
  1
GRIDFORMAT_BEGIN
 90
        0
 91
        1
 62
     0
 92
       -2
340
0
 93
        0
 40
0.045
309
GRIDFORMAT_END
 95
       16
302
GRIDFORMAT
  1
GRIDFORMAT_BEGIN
 90
        0
 91
        1
 62
     0
 92
       -2
340
0
 93
        0
 40
0.045
309
GRIDFORMAT_END
 95
       32
302
GRIDFORMAT
  1
GRIDFORMAT_BEGIN
 90
        0
 91
        1
 62
     0
 92
       -2
340
0
 93
        0
 40
0.045
309
GRIDFORMAT_END
309
TABLEFORMAT_END
  1
CELLSTYLE_BEGIN
 90
        1
 91
        1
300
_TITLE
309
CELLSTYLE_END
300
CELLSTYLE
  1
TABLEFORMAT_BEGIN
 90
        5
170
     1
 91
        0
 92
        0
 62
   257
 93
        1
300
CONTENTFORMAT
  1
CONTENTFORMAT_BEGIN
 90
        0
 91
        0
 92
        4
 93
        0
300

 40
0.0
140
1.0
 94
        5
 62
     0
340
11
144
4.5
309
CONTENTFORMAT_END
171
     1
301
MARGIN
  1
CELLMARGIN_BEGIN
 40
1.5
 40
1.5
 40
1.5
 40
1.5
 40
0.18
 40
0.18
309
CELLMARGIN_END
 94
        6
 95
        1
302
GRIDFORMAT
  1
GRIDFORMAT_BEGIN
 90
        0
 91
        1
 62
     0
 92
       -2
340
0
 93
        0
 40
0.045
309
GRIDFORMAT_END
 95
        2
302
GRIDFORMAT
  1
GRIDFORMAT_BEGIN
 90
        0
 91
        1
 62
     0
 92
       -2
340
0
 93
        0
 40
0.045
309
GRIDFORMAT_END
 95
        4
302
GRIDFORMAT
  1
GRIDFORMAT_BEGIN
 90
        0
 91
        1
 62
     0
 92
       -2
340
0
 93
        0
 40
0.045
309
GRIDFORMAT_END
 95
        8
302
GRIDFORMAT
  1
GRIDFORMAT_BEGIN
 90
        0
 91
        1
 62
     0
 92
       -2
340
0
 93
        0
 40
0.045
309
GRIDFORMAT_END
 95
       16
302
GRIDFORMAT
  1
GRIDFORMAT_BEGIN
 90
        0
 91
        1
 62
     0
 92
       -2
340
0
 93
        0
 40
0.045
309
GRIDFORMAT_END
 95
       32
302
GRIDFORMAT
  1
GRIDFORMAT_BEGIN
 90
        0
 91
        1
 62
     0
 92
       -2
340
0
 93
        0
 40
0.045
309
GRIDFORMAT_END
309
TABLEFORMAT_END
  1
CELLSTYLE_BEGIN
 90
        2
 91
        1
300
_HEADER
309
CELLSTYLE_END
300
CELLSTYLE
  1
TABLEFORMAT_BEGIN
 90
        5
170
     1
 91
        0
 92
        0
 62
   257
 93
        1
300
CONTENTFORMAT
  1
CONTENTFORMAT_BEGIN
 90
        0
 91
        0
 92
        4
 93
        0
300

 40
0.0
140
1.0
 94
        5
 62
     0
340
11
144
3.2
309
CONTENTFORMAT_END
171
     1
301
MARGIN
  1
CELLMARGIN_BEGIN
 40
1.5
 40
1.5
 40
1.5
 40
1.5
 40
0.18
 40
0.18
309
CELLMARGIN_END
 94
        6
 95
        1
302
GRIDFORMAT
  1
GRIDFORMAT_BEGIN
 90
        0
 91
        1
 62
     0
 92
       -2
340
0
 93
        0
 40
0.045
309
GRIDFORMAT_END
 95
        2
302
GRIDFORMAT
  1
GRIDFORMAT_BEGIN
 90
        0
 91
        1
 62
     0
 92
       -2
340
0
 93
        0
 40
0.045
309
GRIDFORMAT_END
 95
        4
302
GRIDFORMAT
  1
GRIDFORMAT_BEGIN
 90
        0
 91
        1
 62
     0
 92
       -2
340
0
 93
        0
 40
0.045
309
GRIDFORMAT_END
 95
        8
302
GRIDFORMAT
  1
GRIDFORMAT_BEGIN
 90
        0
 91
        1
 62
     0
 92
       -2
340
0
 93
        0
 40
0.045
309
GRIDFORMAT_END
 95
       16
302
GRIDFORMAT
  1
GRIDFORMAT_BEGIN
 90
        0
 91
        1
 62
     0
 92
       -2
340
0
 93
        0
 40
0.045
309
GRIDFORMAT_END
 95
       32
302
GRIDFORMAT
  1
GRIDFORMAT_BEGIN
 90
        0
 91
        1
 62
     0
 92
       -2
340
0
 93
        0
 40
0.045
309
GRIDFORMAT_END
309
TABLEFORMAT_END
  1
CELLSTYLE_BEGIN
 90
        3
 91
        2
300
_DATA
309
CELLSTYLE_END
  0
XRECORD
  5
1768E
102
{ACAD_REACTORS
330
14D25
102
}
330
14D25
100
AcDbXrecord
280
     1
102
ACAD_ROUNDTRIP_PRE2007_TABLESTYLE
 90
        4
 91
        0
  1

 92
        4
 93
        0
  2

 94
        4
 95
        0
  3

  0
XRECORD
  5
1769A
102
{ACAD_REACTORS
330
17699
102
}
330
17699
100
AcDbXrecord
280
     1
102
RTVSPost2010Prop28
280
     1
102
RTVSPost2010PropOp28
 70
     1
102
RTVSPost2010Prop29
280
     1
102
RTVSPost2010PropOp29
 70
     1
102
RTVSPost2010Prop30
280
     0
102
RTVSPost2010PropOp30
 70
     1
102
RTVSPost2010Prop31
280
     0
102
RTVSPost2010PropOp31
 70
     1
102
RTVSPost2010Prop32
280
     0
102
RTVSPost2010PropOp32
 70
     1
102
RTVSPost2010Prop33
280
     0
102
RTVSPost2010PropOp33
 70
     1
102
RTVSPost2010Prop34
280
     0
102
RTVSPost2010PropOp34
 70
     1
102
RTVSPost2010Prop35
280
     0
102
RTVSPost2010PropOp35
 70
     1
102
RTVSPost2010Prop36
280
     0
102
RTVSPost2010PropOp36
 70
     1
102
RTVSPost2010Prop37
 90
       50
102
RTVSPost2010PropOp37
 70
     1
102
RTVSPost2010Prop38
140
0.0
102
RTVSPost2010PropOp38
 70
     1
102
RTVSPost2010Prop39
140
1.0
102
RTVSPost2010PropOp39
 70
     1
102
RTVSPost2010Prop40
 90
        0
102
RTVSPost2010PropOp40
 70
     1
102
RTVSPost2010Prop41ColorIndex
 90
       18
102
RTVSPost2010Prop41ColorRGB
 90
        0
102
RTVSPost2010PropOp41
 70
     1
102
RTVSPost2010Prop42
 90
       50
102
RTVSPost2010PropOp42
 70
     1
102
RTVSPost2010Prop43
 90
        3
102
RTVSPost2010PropOp43
 70
     1
102
RTVSPost2010Prop44ColorIndex
 90
        5
102
RTVSPost2010Prop44ColorRGB
 90
      255
102
RTVSPost2010PropOp44
 70
     1
102
RTVSPost2010Prop45
280
     0
102
RTVSPost2010PropOp45
 70
     1
102
RTVSPost2010Prop46
 90
       50
102
RTVSPost2010PropOp46
 70
     1
102
RTVSPost2010Prop47
 90
       50
102
RTVSPost2010PropOp47
 70
     1
102
RTVSPost2010Prop48
 90
       50
102
RTVSPost2010PropOp48
 70
     1
102
RTVSPost2010Prop49
280
     0
102
RTVSPost2010PropOp49
 70
     1
102
RTVSPost2010Prop50
 90
       50
102
RTVSPost2010PropOp50
 70
     1
102
RTVSPost2010Prop51ColorIndex
 90
      256
102
RTVSPost2010Prop51ColorRGB
 90
-16777216
102
RTVSPost2010PropOp51
 70
     0
102
RTVSPost2010Prop52
140
1.0
102
RTVSPost2010PropOp52
 70
     0
102
RTVSPost2010Prop53
 90
        2
102
RTVSPost2010PropOp53
 70
     1
102
RTVSPost2010Prop54
  1
strokes_ogs.tif
102
RTVSPost2010PropOp54
 70
     1
102
RTVSPost2010Prop55
280
     0
102
RTVSPost2010PropOp55
 70
     1
102
RTVSPost2010Prop56
140
1.0
102
RTVSPost2010PropOp56
 70
     1
102
RTVSPost2010Prop57
140
1.0
102
RTVSPost2010PropOp57
 70
     1
102
RTVSPropertyOp0
 70
     1
102
RTVSPropertyOp1
 70
     1
102
RTVSPropertyOp2
 70
     1
102
RTVSPropertyOp3
 70
     1
102
RTVSPropertyOp4
 70
     1
102
RTVSPropertyOp5
 70
     1
102
RTVSPropertyOp6
 70
     1
102
RTVSPropertyOp7
 70
     1
102
RTVSPropertyOp8
 70
     1
102
RTVSPropertyOp9
 70
     1
102
RTVSPropertyOp10
 70
     1
102
RTVSPropertyOp11
 70
     1
102
RTVSPropertyOp12
 70
     1
102
RTVSPropertyOp13
 70
     1
102
RTVSPropertyOp14
 70
     1
102
RTVSPropertyOp15
 70
     1
102
RTVSPropertyOp16
 70
     1
102
RTVSPropertyOp17
 70
     1
102
RTVSPropertyOp18
 70
     1
102
RTVSPropertyOp19
 70
     1
102
RTVSPropertyOp20
 70
     1
102
RTVSPropertyOp21
 70
     1
102
RTVSPropertyOp22
 70
     1
102
RTVSPropertyOp23
 70
     1
102
RTVSPropertyOp24
 70
     1
102
RTVSPropertyOp25
 70
     1
102
RTVSPropertyOp26
 70
     1
102
RTVSPropertyOp27
 70
     1
102
RTVSPropertyOp28
 70
     1
102
RTVSPropertyOp29
 70
     1
102
RTVSPropertyOp30
 70
     1
102
RTVSPropertyOp31
 70
     1
102
RTVSPropertyOp32
 70
     1
102
RTVSPropertyOp33
 70
     1
102
RTVSPropertyOp34
 70
     1
102
RTVSPropertyOp35
 70
     1
102
RTVSPropertyOp36
 70
     1
102
RTVSPropertyOp37
 70
     1
102
RTVSPropertyOp38
 70
     1
102
RTVSPropertyOp39
 70
     1
102
RTVSPropertyOp40
 70
     1
102
RTVSPropertyOp41
 70
     1
102
RTVSPropertyOp42
 70
     1
102
RTVSPropertyOp43
 70
     1
102
RTVSPropertyOp44
 70
     1
102
RTVSPropertyOp45
 70
     1
102
RTVSPropertyOp46
 70
     1
102
RTVSPropertyOp47
 70
     1
102
RTVSPropertyOp48
 70
     1
102
RTVSPropertyOp49
 70
     1
102
RTVSPropertyOp50
 70
     1
102
RTVSPropertyOp51
 70
     0
102
RTVSPropertyOp52
 70
     0
102
RTVSPropertyOp53
 70
     1
102
RTVSPropertyOp54
 70
     1
102
RTVSPropertyOp55
 70
     1
102
RTVSPropertyOp56
 70
     1
102
RTVSPropertyOp57
 70
     1
102
RTVSPropertyOp58
 70
     1
102
RTVSPropertyOp59
 70
     1
102
RTVSPropertyOp60
 70
     1
102
RTVSPropertyOp61
 70
     1
102
RTVSPropertyOp62
 70
     1
  0
XRECORD
  5
1769E
102
{ACAD_REACTORS
330
1769D
102
}
330
1769D
100
AcDbXrecord
280
     1
102
RTVSPost2010Prop28
280
     0
102
RTVSPost2010PropOp28
 70
     1
102
RTVSPost2010Prop29
280
     1
102
RTVSPost2010PropOp29
 70
     1
102
RTVSPost2010Prop30
280
     1
102
RTVSPost2010PropOp30
 70
     1
102
RTVSPost2010Prop31
280
     0
102
RTVSPost2010PropOp31
 70
     1
102
RTVSPost2010Prop32
280
     0
102
RTVSPost2010PropOp32
 70
     1
102
RTVSPost2010Prop33
280
     0
102
RTVSPost2010PropOp33
 70
     1
102
RTVSPost2010Prop34
280
     0
102
RTVSPost2010PropOp34
 70
     1
102
RTVSPost2010Prop35
280
     0
102
RTVSPost2010PropOp35
 70
     1
102
RTVSPost2010Prop36
280
     0
102
RTVSPost2010PropOp36
 70
     1
102
RTVSPost2010Prop37
 90
       50
102
RTVSPost2010PropOp37
 70
     1
102
RTVSPost2010Prop38
140
0.0
102
RTVSPost2010PropOp38
 70
     1
102
RTVSPost2010Prop39
140
1.0
102
RTVSPost2010PropOp39
 70
     1
102
RTVSPost2010Prop40
 90
        0
102
RTVSPost2010PropOp40
 70
     1
102
RTVSPost2010Prop41ColorIndex
 90
       18
102
RTVSPost2010Prop41ColorRGB
 90
        0
102
RTVSPost2010PropOp41
 70
     1
102
RTVSPost2010Prop42
 90
       50
102
RTVSPost2010PropOp42
 70
     1
102
RTVSPost2010Prop43
 90
        3
102
RTVSPost2010PropOp43
 70
     1
102
RTVSPost2010Prop44ColorIndex
 90
        5
102
RTVSPost2010Prop44ColorRGB
 90
      255
102
RTVSPost2010PropOp44
 70
     1
102
RTVSPost2010Prop45
280
     0
102
RTVSPost2010PropOp45
 70
     1
102
RTVSPost2010Prop46
 90
       50
102
RTVSPost2010PropOp46
 70
     1
102
RTVSPost2010Prop47
 90
       50
102
RTVSPost2010PropOp47
 70
     1
102
RTVSPost2010Prop48
 90
       50
102
RTVSPost2010PropOp48
 70
     1
102
RTVSPost2010Prop49
280
     0
102
RTVSPost2010PropOp49
 70
     1
102
RTVSPost2010Prop50
 90
       50
102
RTVSPost2010PropOp50
 70
     1
102
RTVSPost2010Prop51ColorIndex
 90
      256
102
RTVSPost2010Prop51ColorRGB
 90
-16777216
102
RTVSPost2010PropOp51
 70
     0
102
RTVSPost2010Prop52
140
1.0
102
RTVSPost2010PropOp52
 70
     0
102
RTVSPost2010Prop53
 90
        2
102
RTVSPost2010PropOp53
 70
     1
102
RTVSPost2010Prop54
  1
strokes_ogs.tif
102
RTVSPost2010PropOp54
 70
     1
102
RTVSPost2010Prop55
280
     0
102
RTVSPost2010PropOp55
 70
     1
102
RTVSPost2010Prop56
140
1.0
102
RTVSPost2010PropOp56
 70
     1
102
RTVSPost2010Prop57
140
1.0
102
RTVSPost2010PropOp57
 70
     1
102
RTVSPropertyOp0
 70
     1
102
RTVSPropertyOp1
 70
     1
102
RTVSPropertyOp2
 70
     1
102
RTVSPropertyOp3
 70
     1
102
RTVSPropertyOp4
 70
     1
102
RTVSPropertyOp5
 70
     1
102
RTVSPropertyOp6
 70
     1
102
RTVSPropertyOp7
 70
     1
102
RTVSPropertyOp8
 70
     1
102
RTVSPropertyOp9
 70
     1
102
RTVSPropertyOp10
 70
     1
102
RTVSPropertyOp11
 70
     1
102
RTVSPropertyOp12
 70
     1
102
RTVSPropertyOp13
 70
     1
102
RTVSPropertyOp14
 70
     1
102
RTVSPropertyOp15
 70
     1
102
RTVSPropertyOp16
 70
     1
102
RTVSPropertyOp17
 70
     1
102
RTVSPropertyOp18
 70
     1
102
RTVSPropertyOp19
 70
     1
102
RTVSPropertyOp20
 70
     1
102
RTVSPropertyOp21
 70
     1
102
RTVSPropertyOp22
 70
     1
102
RTVSPropertyOp23
 70
     1
102
RTVSPropertyOp24
 70
     1
102
RTVSPropertyOp25
 70
     1
102
RTVSPropertyOp26
 70
     1
102
RTVSPropertyOp27
 70
     1
102
RTVSPropertyOp28
 70
     1
102
RTVSPropertyOp29
 70
     1
102
RTVSPropertyOp30
 70
     1
102
RTVSPropertyOp31
 70
     1
102
RTVSPropertyOp32
 70
     1
102
RTVSPropertyOp33
 70
     1
102
RTVSPropertyOp34
 70
     1
102
RTVSPropertyOp35
 70
     1
102
RTVSPropertyOp36
 70
     1
102
RTVSPropertyOp37
 70
     1
102
RTVSPropertyOp38
 70
     1
102
RTVSPropertyOp39
 70
     1
102
RTVSPropertyOp40
 70
     1
102
RTVSPropertyOp41
 70
     1
102
RTVSPropertyOp42
 70
     1
102
RTVSPropertyOp43
 70
     1
102
RTVSPropertyOp44
 70
     1
102
RTVSPropertyOp45
 70
     1
102
RTVSPropertyOp46
 70
     1
102
RTVSPropertyOp47
 70
     1
102
RTVSPropertyOp48
 70
     1
102
RTVSPropertyOp49
 70
     1
102
RTVSPropertyOp50
 70
     1
102
RTVSPropertyOp51
 70
     0
102
RTVSPropertyOp52
 70
     0
102
RTVSPropertyOp53
 70
     1
102
RTVSPropertyOp54
 70
     1
102
RTVSPropertyOp55
 70
     1
102
RTVSPropertyOp56
 70
     1
102
RTVSPropertyOp57
 70
     1
102
RTVSPropertyOp58
 70
     1
102
RTVSPropertyOp59
 70
     1
102
RTVSPropertyOp60
 70
     1
102
RTVSPropertyOp61
 70
     1
102
RTVSPropertyOp62
 70
     1
  0
XRECORD
  5
1769C
102
{ACAD_REACTORS
330
1769B
102
}
330
1769B
100
AcDbXrecord
280
     1
102
RTVSPost2010Prop28
280
     0
102
RTVSPost2010PropOp28
 70
     1
102
RTVSPost2010Prop29
280
     1
102
RTVSPost2010PropOp29
 70
     1
102
RTVSPost2010Prop30
280
     1
102
RTVSPost2010PropOp30
 70
     1
102
RTVSPost2010Prop31
280
     0
102
RTVSPost2010PropOp31
 70
     1
102
RTVSPost2010Prop32
280
     0
102
RTVSPost2010PropOp32
 70
     1
102
RTVSPost2010Prop33
280
     0
102
RTVSPost2010PropOp33
 70
     1
102
RTVSPost2010Prop34
280
     0
102
RTVSPost2010PropOp34
 70
     1
102
RTVSPost2010Prop35
280
     0
102
RTVSPost2010PropOp35
 70
     1
102
RTVSPost2010Prop36
280
     0
102
RTVSPost2010PropOp36
 70
     1
102
RTVSPost2010Prop37
 90
       50
102
RTVSPost2010PropOp37
 70
     1
102
RTVSPost2010Prop38
140
0.0
102
RTVSPost2010PropOp38
 70
     1
102
RTVSPost2010Prop39
140
1.0
102
RTVSPost2010PropOp39
 70
     1
102
RTVSPost2010Prop40
 90
        0
102
RTVSPost2010PropOp40
 70
     1
102
RTVSPost2010Prop41ColorIndex
 90
       18
102
RTVSPost2010Prop41ColorRGB
 90
        0
102
RTVSPost2010PropOp41
 70
     1
102
RTVSPost2010Prop42
 90
       50
102
RTVSPost2010PropOp42
 70
     1
102
RTVSPost2010Prop43
 90
        3
102
RTVSPost2010PropOp43
 70
     1
102
RTVSPost2010Prop44ColorIndex
 90
        5
102
RTVSPost2010Prop44ColorRGB
 90
      255
102
RTVSPost2010PropOp44
 70
     1
102
RTVSPost2010Prop45
280
     0
102
RTVSPost2010PropOp45
 70
     1
102
RTVSPost2010Prop46
 90
       50
102
RTVSPost2010PropOp46
 70
     1
102
RTVSPost2010Prop47
 90
       50
102
RTVSPost2010PropOp47
 70
     1
102
RTVSPost2010Prop48
 90
       50
102
RTVSPost2010PropOp48
 70
     1
102
RTVSPost2010Prop49
280
     0
102
RTVSPost2010PropOp49
 70
     1
102
RTVSPost2010Prop50
 90
       50
102
RTVSPost2010PropOp50
 70
     1
102
RTVSPost2010Prop51ColorIndex
 90
      256
102
RTVSPost2010Prop51ColorRGB
 90
-16777216
102
RTVSPost2010PropOp51
 70
     0
102
RTVSPost2010Prop52
140
1.0
102
RTVSPost2010PropOp52
 70
     0
102
RTVSPost2010Prop53
 90
        2
102
RTVSPost2010PropOp53
 70
     1
102
RTVSPost2010Prop54
  1
strokes_ogs.tif
102
RTVSPost2010PropOp54
 70
     1
102
RTVSPost2010Prop55
280
     0
102
RTVSPost2010PropOp55
 70
     1
102
RTVSPost2010Prop56
140
1.0
102
RTVSPost2010PropOp56
 70
     1
102
RTVSPost2010Prop57
140
1.0
102
RTVSPost2010PropOp57
 70
     1
102
RTVSPropertyOp0
 70
     1
102
RTVSPropertyOp1
 70
     1
102
RTVSPropertyOp2
 70
     1
102
RTVSPropertyOp3
 70
     1
102
RTVSPropertyOp4
 70
     1
102
RTVSPropertyOp5
 70
     1
102
RTVSPropertyOp6
 70
     1
102
RTVSPropertyOp7
 70
     1
102
RTVSPropertyOp8
 70
     1
102
RTVSPropertyOp9
 70
     1
102
RTVSPropertyOp10
 70
     1
102
RTVSPropertyOp11
 70
     1
102
RTVSPropertyOp12
 70
     1
102
RTVSPropertyOp13
 70
     1
102
RTVSPropertyOp14
 70
     1
102
RTVSPropertyOp15
 70
     1
102
RTVSPropertyOp16
 70
     1
102
RTVSPropertyOp17
 70
     1
102
RTVSPropertyOp18
 70
     1
102
RTVSPropertyOp19
 70
     1
102
RTVSPropertyOp20
 70
     1
102
RTVSPropertyOp21
 70
     1
102
RTVSPropertyOp22
 70
     1
102
RTVSPropertyOp23
 70
     1
102
RTVSPropertyOp24
 70
     1
102
RTVSPropertyOp25
 70
     1
102
RTVSPropertyOp26
 70
     1
102
RTVSPropertyOp27
 70
     1
102
RTVSPropertyOp28
 70
     1
102
RTVSPropertyOp29
 70
     1
102
RTVSPropertyOp30
 70
     1
102
RTVSPropertyOp31
 70
     1
102
RTVSPropertyOp32
 70
     1
102
RTVSPropertyOp33
 70
     1
102
RTVSPropertyOp34
 70
     1
102
RTVSPropertyOp35
 70
     1
102
RTVSPropertyOp36
 70
     1
102
RTVSPropertyOp37
 70
     1
102
RTVSPropertyOp38
 70
     1
102
RTVSPropertyOp39
 70
     1
102
RTVSPropertyOp40
 70
     1
102
RTVSPropertyOp41
 70
     1
102
RTVSPropertyOp42
 70
     1
102
RTVSPropertyOp43
 70
     1
102
RTVSPropertyOp44
 70
     1
102
RTVSPropertyOp45
 70
     1
102
RTVSPropertyOp46
 70
     1
102
RTVSPropertyOp47
 70
     1
102
RTVSPropertyOp48
 70
     1
102
RTVSPropertyOp49
 70
     1
102
RTVSPropertyOp50
 70
     1
102
RTVSPropertyOp51
 70
     0
102
RTVSPropertyOp52
 70
     0
102
RTVSPropertyOp53
 70
     1
102
RTVSPropertyOp54
 70
     1
102
RTVSPropertyOp55
 70
     1
102
RTVSPropertyOp56
 70
     1
102
RTVSPropertyOp57
 70
     1
102
RTVSPropertyOp58
 70
     1
102
RTVSPropertyOp59
 70
     1
102
RTVSPropertyOp60
 70
     1
102
RTVSPropertyOp61
 70
     1
102
RTVSPropertyOp62
 70
     1
  0
XRECORD
  5
17698
102
{ACAD_REACTORS
330
17697
102
}
330
17697
100
AcDbXrecord
280
     1
102
RTVSPost2010Prop28
280
     0
102
RTVSPost2010PropOp28
 70
     1
102
RTVSPost2010Prop29
280
     1
102
RTVSPost2010PropOp29
 70
     1
102
RTVSPost2010Prop30
280
     1
102
RTVSPost2010PropOp30
 70
     1
102
RTVSPost2010Prop31
280
     0
102
RTVSPost2010PropOp31
 70
     1
102
RTVSPost2010Prop32
280
     0
102
RTVSPost2010PropOp32
 70
     1
102
RTVSPost2010Prop33
280
     0
102
RTVSPost2010PropOp33
 70
     1
102
RTVSPost2010Prop34
280
     0
102
RTVSPost2010PropOp34
 70
     1
102
RTVSPost2010Prop35
280
     0
102
RTVSPost2010PropOp35
 70
     1
102
RTVSPost2010Prop36
280
     0
102
RTVSPost2010PropOp36
 70
     1
102
RTVSPost2010Prop37
 90
       50
102
RTVSPost2010PropOp37
 70
     1
102
RTVSPost2010Prop38
140
0.0
102
RTVSPost2010PropOp38
 70
     1
102
RTVSPost2010Prop39
140
1.0
102
RTVSPost2010PropOp39
 70
     1
102
RTVSPost2010Prop40
 90
        0
102
RTVSPost2010PropOp40
 70
     1
102
RTVSPost2010Prop41ColorIndex
 90
       18
102
RTVSPost2010Prop41ColorRGB
 90
        0
102
RTVSPost2010PropOp41
 70
     1
102
RTVSPost2010Prop42
 90
       50
102
RTVSPost2010PropOp42
 70
     1
102
RTVSPost2010Prop43
 90
        3
102
RTVSPost2010PropOp43
 70
     1
102
RTVSPost2010Prop44ColorIndex
 90
        5
102
RTVSPost2010Prop44ColorRGB
 90
      255
102
RTVSPost2010PropOp44
 70
     1
102
RTVSPost2010Prop45
280
     0
102
RTVSPost2010PropOp45
 70
     1
102
RTVSPost2010Prop46
 90
       50
102
RTVSPost2010PropOp46
 70
     1
102
RTVSPost2010Prop47
 90
       50
102
RTVSPost2010PropOp47
 70
     1
102
RTVSPost2010Prop48
 90
       50
102
RTVSPost2010PropOp48
 70
     1
102
RTVSPost2010Prop49
280
     0
102
RTVSPost2010PropOp49
 70
     1
102
RTVSPost2010Prop50
 90
       50
102
RTVSPost2010PropOp50
 70
     1
102
RTVSPost2010Prop51ColorIndex
 90
      256
102
RTVSPost2010Prop51ColorRGB
 90
-16777216
102
RTVSPost2010PropOp51
 70
     0
102
RTVSPost2010Prop52
140
1.0
102
RTVSPost2010PropOp52
 70
     0
102
RTVSPost2010Prop53
 90
        2
102
RTVSPost2010PropOp53
 70
     1
102
RTVSPost2010Prop54
  1
strokes_ogs.tif
102
RTVSPost2010PropOp54
 70
     1
102
RTVSPost2010Prop55
280
     0
102
RTVSPost2010PropOp55
 70
     1
102
RTVSPost2010Prop56
140
1.0
102
RTVSPost2010PropOp56
 70
     1
102
RTVSPost2010Prop57
140
1.0
102
RTVSPost2010PropOp57
 70
     1
102
RTVSPropertyOp0
 70
     1
102
RTVSPropertyOp1
 70
     1
102
RTVSPropertyOp2
 70
     1
102
RTVSPropertyOp3
 70
     1
102
RTVSPropertyOp4
 70
     1
102
RTVSPropertyOp5
 70
     1
102
RTVSPropertyOp6
 70
     1
102
RTVSPropertyOp7
 70
     1
102
RTVSPropertyOp8
 70
     1
102
RTVSPropertyOp9
 70
     1
102
RTVSPropertyOp10
 70
     1
102
RTVSPropertyOp11
 70
     1
102
RTVSPropertyOp12
 70
     1
102
RTVSPropertyOp13
 70
     1
102
RTVSPropertyOp14
 70
     1
102
RTVSPropertyOp15
 70
     1
102
RTVSPropertyOp16
 70
     1
102
RTVSPropertyOp17
 70
     1
102
RTVSPropertyOp18
 70
     1
102
RTVSPropertyOp19
 70
     1
102
RTVSPropertyOp20
 70
     1
102
RTVSPropertyOp21
 70
     1
102
RTVSPropertyOp22
 70
     1
102
RTVSPropertyOp23
 70
     1
102
RTVSPropertyOp24
 70
     1
102
RTVSPropertyOp25
 70
     1
102
RTVSPropertyOp26
 70
     1
102
RTVSPropertyOp27
 70
     1
102
RTVSPropertyOp28
 70
     1
102
RTVSPropertyOp29
 70
     1
102
RTVSPropertyOp30
 70
     1
102
RTVSPropertyOp31
 70
     1
102
RTVSPropertyOp32
 70
     1
102
RTVSPropertyOp33
 70
     1
102
RTVSPropertyOp34
 70
     1
102
RTVSPropertyOp35
 70
     1
102
RTVSPropertyOp36
 70
     1
102
RTVSPropertyOp37
 70
     1
102
RTVSPropertyOp38
 70
     1
102
RTVSPropertyOp39
 70
     1
102
RTVSPropertyOp40
 70
     1
102
RTVSPropertyOp41
 70
     1
102
RTVSPropertyOp42
 70
     1
102
RTVSPropertyOp43
 70
     1
102
RTVSPropertyOp44
 70
     1
102
RTVSPropertyOp45
 70
     1
102
RTVSPropertyOp46
 70
     1
102
RTVSPropertyOp47
 70
     1
102
RTVSPropertyOp48
 70
     1
102
RTVSPropertyOp49
 70
     1
102
RTVSPropertyOp50
 70
     1
102
RTVSPropertyOp51
 70
     0
102
RTVSPropertyOp52
 70
     0
102
RTVSPropertyOp53
 70
     1
102
RTVSPropertyOp54
 70
     1
102
RTVSPropertyOp55
 70
     1
102
RTVSPropertyOp56
 70
     1
102
RTVSPropertyOp57
 70
     1
102
RTVSPropertyOp58
 70
     1
102
RTVSPropertyOp59
 70
     1
102
RTVSPropertyOp60
 70
     1
102
RTVSPropertyOp61
 70
     1
102
RTVSPropertyOp62
 70
     1
  0
XRECORD
  5
176A6
102
{ACAD_REACTORS
330
176A5
102
}
330
176A5
100
AcDbXrecord
280
     1
102
RTVSPost2010Prop28
280
     0
102
RTVSPost2010PropOp28
 70
     1
102
RTVSPost2010Prop29
280
     1
102
RTVSPost2010PropOp29
 70
     1
102
RTVSPost2010Prop30
280
     1
102
RTVSPost2010PropOp30
 70
     1
102
RTVSPost2010Prop31
280
     0
102
RTVSPost2010PropOp31
 70
     1
102
RTVSPost2010Prop32
280
     0
102
RTVSPost2010PropOp32
 70
     1
102
RTVSPost2010Prop33
280
     0
102
RTVSPost2010PropOp33
 70
     1
102
RTVSPost2010Prop34
280
     0
102
RTVSPost2010PropOp34
 70
     1
102
RTVSPost2010Prop35
280
     0
102
RTVSPost2010PropOp35
 70
     1
102
RTVSPost2010Prop36
280
     0
102
RTVSPost2010PropOp36
 70
     1
102
RTVSPost2010Prop37
 90
       50
102
RTVSPost2010PropOp37
 70
     1
102
RTVSPost2010Prop38
140
0.0
102
RTVSPost2010PropOp38
 70
     1
102
RTVSPost2010Prop39
140
1.0
102
RTVSPost2010PropOp39
 70
     1
102
RTVSPost2010Prop40
 90
        0
102
RTVSPost2010PropOp40
 70
     1
102
RTVSPost2010Prop41ColorIndex
 90
       18
102
RTVSPost2010Prop41ColorRGB
 90
        0
102
RTVSPost2010PropOp41
 70
     1
102
RTVSPost2010Prop42
 90
       50
102
RTVSPost2010PropOp42
 70
     1
102
RTVSPost2010Prop43
 90
        3
102
RTVSPost2010PropOp43
 70
     1
102
RTVSPost2010Prop44ColorIndex
 90
        5
102
RTVSPost2010Prop44ColorRGB
 90
      255
102
RTVSPost2010PropOp44
 70
     1
102
RTVSPost2010Prop45
280
     0
102
RTVSPost2010PropOp45
 70
     1
102
RTVSPost2010Prop46
 90
       50
102
RTVSPost2010PropOp46
 70
     1
102
RTVSPost2010Prop47
 90
       50
102
RTVSPost2010PropOp47
 70
     1
102
RTVSPost2010Prop48
 90
       50
102
RTVSPost2010PropOp48
 70
     1
102
RTVSPost2010Prop49
280
     0
102
RTVSPost2010PropOp49
 70
     1
102
RTVSPost2010Prop50
 90
       50
102
RTVSPost2010PropOp50
 70
     1
102
RTVSPost2010Prop51ColorIndex
 90
      256
102
RTVSPost2010Prop51ColorRGB
 90
-16777216
102
RTVSPost2010PropOp51
 70
     0
102
RTVSPost2010Prop52
140
1.0
102
RTVSPost2010PropOp52
 70
     0
102
RTVSPost2010Prop53
 90
        2
102
RTVSPost2010PropOp53
 70
     1
102
RTVSPost2010Prop54
  1
strokes_ogs.tif
102
RTVSPost2010PropOp54
 70
     1
102
RTVSPost2010Prop55
280
     0
102
RTVSPost2010PropOp55
 70
     1
102
RTVSPost2010Prop56
140
1.0
102
RTVSPost2010PropOp56
 70
     1
102
RTVSPost2010Prop57
140
1.0
102
RTVSPost2010PropOp57
 70
     1
102
RTVSPropertyOp0
 70
     1
102
RTVSPropertyOp1
 70
     1
102
RTVSPropertyOp2
 70
     1
102
RTVSPropertyOp3
 70
     1
102
RTVSPropertyOp4
 70
     1
102
RTVSPropertyOp5
 70
     1
102
RTVSPropertyOp6
 70
     1
102
RTVSPropertyOp7
 70
     1
102
RTVSPropertyOp8
 70
     1
102
RTVSPropertyOp9
 70
     1
102
RTVSPropertyOp10
 70
     1
102
RTVSPropertyOp11
 70
     1
102
RTVSPropertyOp12
 70
     1
102
RTVSPropertyOp13
 70
     1
102
RTVSPropertyOp14
 70
     1
102
RTVSPropertyOp15
 70
     1
102
RTVSPropertyOp16
 70
     1
102
RTVSPropertyOp17
 70
     1
102
RTVSPropertyOp18
 70
     1
102
RTVSPropertyOp19
 70
     1
102
RTVSPropertyOp20
 70
     1
102
RTVSPropertyOp21
 70
     1
102
RTVSPropertyOp22
 70
     1
102
RTVSPropertyOp23
 70
     1
102
RTVSPropertyOp24
 70
     1
102
RTVSPropertyOp25
 70
     1
102
RTVSPropertyOp26
 70
     1
102
RTVSPropertyOp27
 70
     1
102
RTVSPropertyOp28
 70
     1
102
RTVSPropertyOp29
 70
     1
102
RTVSPropertyOp30
 70
     1
102
RTVSPropertyOp31
 70
     1
102
RTVSPropertyOp32
 70
     1
102
RTVSPropertyOp33
 70
     1
102
RTVSPropertyOp34
 70
     1
102
RTVSPropertyOp35
 70
     1
102
RTVSPropertyOp36
 70
     1
102
RTVSPropertyOp37
 70
     1
102
RTVSPropertyOp38
 70
     1
102
RTVSPropertyOp39
 70
     1
102
RTVSPropertyOp40
 70
     1
102
RTVSPropertyOp41
 70
     1
102
RTVSPropertyOp42
 70
     1
102
RTVSPropertyOp43
 70
     1
102
RTVSPropertyOp44
 70
     1
102
RTVSPropertyOp45
 70
     1
102
RTVSPropertyOp46
 70
     1
102
RTVSPropertyOp47
 70
     1
102
RTVSPropertyOp48
 70
     1
102
RTVSPropertyOp49
 70
     1
102
RTVSPropertyOp50
 70
     1
102
RTVSPropertyOp51
 70
     0
102
RTVSPropertyOp52
 70
     0
102
RTVSPropertyOp53
 70
     1
102
RTVSPropertyOp54
 70
     1
102
RTVSPropertyOp55
 70
     1
102
RTVSPropertyOp56
 70
     1
102
RTVSPropertyOp57
 70
     1
102
RTVSPropertyOp58
 70
     1
102
RTVSPropertyOp59
 70
     1
102
RTVSPropertyOp60
 70
     1
102
RTVSPropertyOp61
 70
     1
102
RTVSPropertyOp62
 70
     1
  0
XRECORD
  5
176AE
102
{ACAD_REACTORS
330
176AD
102
}
330
176AD
100
AcDbXrecord
280
     1
102
RTVSPost2010Prop28
280
     0
102
RTVSPost2010PropOp28
 70
     1
102
RTVSPost2010Prop29
280
     1
102
RTVSPost2010PropOp29
 70
     1
102
RTVSPost2010Prop30
280
     1
102
RTVSPost2010PropOp30
 70
     1
102
RTVSPost2010Prop31
280
     0
102
RTVSPost2010PropOp31
 70
     1
102
RTVSPost2010Prop32
280
     0
102
RTVSPost2010PropOp32
 70
     1
102
RTVSPost2010Prop33
280
     0
102
RTVSPost2010PropOp33
 70
     1
102
RTVSPost2010Prop34
280
     0
102
RTVSPost2010PropOp34
 70
     1
102
RTVSPost2010Prop35
280
     0
102
RTVSPost2010PropOp35
 70
     1
102
RTVSPost2010Prop36
280
     0
102
RTVSPost2010PropOp36
 70
     1
102
RTVSPost2010Prop37
 90
       50
102
RTVSPost2010PropOp37
 70
     1
102
RTVSPost2010Prop38
140
0.0
102
RTVSPost2010PropOp38
 70
     1
102
RTVSPost2010Prop39
140
1.0
102
RTVSPost2010PropOp39
 70
     1
102
RTVSPost2010Prop40
 90
        0
102
RTVSPost2010PropOp40
 70
     1
102
RTVSPost2010Prop41ColorIndex
 90
       18
102
RTVSPost2010Prop41ColorRGB
 90
        0
102
RTVSPost2010PropOp41
 70
     1
102
RTVSPost2010Prop42
 90
       50
102
RTVSPost2010PropOp42
 70
     1
102
RTVSPost2010Prop43
 90
        3
102
RTVSPost2010PropOp43
 70
     1
102
RTVSPost2010Prop44ColorIndex
 90
        5
102
RTVSPost2010Prop44ColorRGB
 90
      255
102
RTVSPost2010PropOp44
 70
     1
102
RTVSPost2010Prop45
280
     0
102
RTVSPost2010PropOp45
 70
     1
102
RTVSPost2010Prop46
 90
       50
102
RTVSPost2010PropOp46
 70
     1
102
RTVSPost2010Prop47
 90
       50
102
RTVSPost2010PropOp47
 70
     1
102
RTVSPost2010Prop48
 90
       50
102
RTVSPost2010PropOp48
 70
     1
102
RTVSPost2010Prop49
280
     0
102
RTVSPost2010PropOp49
 70
     1
102
RTVSPost2010Prop50
 90
       50
102
RTVSPost2010PropOp50
 70
     1
102
RTVSPost2010Prop51ColorIndex
 90
      256
102
RTVSPost2010Prop51ColorRGB
 90
-16777216
102
RTVSPost2010PropOp51
 70
     0
102
RTVSPost2010Prop52
140
1.0
102
RTVSPost2010PropOp52
 70
     0
102
RTVSPost2010Prop53
 90
        2
102
RTVSPost2010PropOp53
 70
     1
102
RTVSPost2010Prop54
  1
strokes_ogs.tif
102
RTVSPost2010PropOp54
 70
     1
102
RTVSPost2010Prop55
280
     0
102
RTVSPost2010PropOp55
 70
     1
102
RTVSPost2010Prop56
140
1.0
102
RTVSPost2010PropOp56
 70
     1
102
RTVSPost2010Prop57
140
1.0
102
RTVSPost2010PropOp57
 70
     1
102
RTVSPropertyOp0
 70
     1
102
RTVSPropertyOp1
 70
     1
102
RTVSPropertyOp2
 70
     1
102
RTVSPropertyOp3
 70
     1
102
RTVSPropertyOp4
 70
     1
102
RTVSPropertyOp5
 70
     1
102
RTVSPropertyOp6
 70
     1
102
RTVSPropertyOp7
 70
     1
102
RTVSPropertyOp8
 70
     1
102
RTVSPropertyOp9
 70
     1
102
RTVSPropertyOp10
 70
     1
102
RTVSPropertyOp11
 70
     1
102
RTVSPropertyOp12
 70
     1
102
RTVSPropertyOp13
 70
     1
102
RTVSPropertyOp14
 70
     1
102
RTVSPropertyOp15
 70
     1
102
RTVSPropertyOp16
 70
     1
102
RTVSPropertyOp17
 70
     1
102
RTVSPropertyOp18
 70
     1
102
RTVSPropertyOp19
 70
     1
102
RTVSPropertyOp20
 70
     1
102
RTVSPropertyOp21
 70
     1
102
RTVSPropertyOp22
 70
     1
102
RTVSPropertyOp23
 70
     1
102
RTVSPropertyOp24
 70
     1
102
RTVSPropertyOp25
 70
     1
102
RTVSPropertyOp26
 70
     1
102
RTVSPropertyOp27
 70
     1
102
RTVSPropertyOp28
 70
     1
102
RTVSPropertyOp29
 70
     1
102
RTVSPropertyOp30
 70
     1
102
RTVSPropertyOp31
 70
     1
102
RTVSPropertyOp32
 70
     1
102
RTVSPropertyOp33
 70
     1
102
RTVSPropertyOp34
 70
     1
102
RTVSPropertyOp35
 70
     1
102
RTVSPropertyOp36
 70
     1
102
RTVSPropertyOp37
 70
     1
102
RTVSPropertyOp38
 70
     1
102
RTVSPropertyOp39
 70
     1
102
RTVSPropertyOp40
 70
     1
102
RTVSPropertyOp41
 70
     1
102
RTVSPropertyOp42
 70
     1
102
RTVSPropertyOp43
 70
     1
102
RTVSPropertyOp44
 70
     1
102
RTVSPropertyOp45
 70
     1
102
RTVSPropertyOp46
 70
     1
102
RTVSPropertyOp47
 70
     1
102
RTVSPropertyOp48
 70
     1
102
RTVSPropertyOp49
 70
     1
102
RTVSPropertyOp50
 70
     1
102
RTVSPropertyOp51
 70
     0
102
RTVSPropertyOp52
 70
     0
102
RTVSPropertyOp53
 70
     1
102
RTVSPropertyOp54
 70
     1
102
RTVSPropertyOp55
 70
     1
102
RTVSPropertyOp56
 70
     1
102
RTVSPropertyOp57
 70
     1
102
RTVSPropertyOp58
 70
     1
102
RTVSPropertyOp59
 70
     1
102
RTVSPropertyOp60
 70
     1
102
RTVSPropertyOp61
 70
     1
102
RTVSPropertyOp62
 70
     1
  0
XRECORD
  5
176A0
102
{ACAD_REACTORS
330
1769F
102
}
330
1769F
100
AcDbXrecord
280
     1
102
RTVSPost2010Prop28
280
     0
102
RTVSPost2010PropOp28
 70
     1
102
RTVSPost2010Prop29
280
     1
102
RTVSPost2010PropOp29
 70
     1
102
RTVSPost2010Prop30
280
     1
102
RTVSPost2010PropOp30
 70
     1
102
RTVSPost2010Prop31
280
     0
102
RTVSPost2010PropOp31
 70
     1
102
RTVSPost2010Prop32
280
     0
102
RTVSPost2010PropOp32
 70
     1
102
RTVSPost2010Prop33
280
     0
102
RTVSPost2010PropOp33
 70
     1
102
RTVSPost2010Prop34
280
     0
102
RTVSPost2010PropOp34
 70
     1
102
RTVSPost2010Prop35
280
     0
102
RTVSPost2010PropOp35
 70
     1
102
RTVSPost2010Prop36
280
     0
102
RTVSPost2010PropOp36
 70
     1
102
RTVSPost2010Prop37
 90
       50
102
RTVSPost2010PropOp37
 70
     1
102
RTVSPost2010Prop38
140
0.0
102
RTVSPost2010PropOp38
 70
     1
102
RTVSPost2010Prop39
140
1.0
102
RTVSPost2010PropOp39
 70
     1
102
RTVSPost2010Prop40
 90
        0
102
RTVSPost2010PropOp40
 70
     1
102
RTVSPost2010Prop41ColorIndex
 90
       18
102
RTVSPost2010Prop41ColorRGB
 90
        0
102
RTVSPost2010PropOp41
 70
     1
102
RTVSPost2010Prop42
 90
       50
102
RTVSPost2010PropOp42
 70
     1
102
RTVSPost2010Prop43
 90
        3
102
RTVSPost2010PropOp43
 70
     1
102
RTVSPost2010Prop44ColorIndex
 90
        5
102
RTVSPost2010Prop44ColorRGB
 90
      255
102
RTVSPost2010PropOp44
 70
     1
102
RTVSPost2010Prop45
280
     0
102
RTVSPost2010PropOp45
 70
     1
102
RTVSPost2010Prop46
 90
       50
102
RTVSPost2010PropOp46
 70
     1
102
RTVSPost2010Prop47
 90
       50
102
RTVSPost2010PropOp47
 70
     1
102
RTVSPost2010Prop48
 90
       50
102
RTVSPost2010PropOp48
 70
     1
102
RTVSPost2010Prop49
280
     0
102
RTVSPost2010PropOp49
 70
     1
102
RTVSPost2010Prop50
 90
       50
102
RTVSPost2010PropOp50
 70
     1
102
RTVSPost2010Prop51ColorIndex
 90
      256
102
RTVSPost2010Prop51ColorRGB
 90
-16777216
102
RTVSPost2010PropOp51
 70
     0
102
RTVSPost2010Prop52
140
1.0
102
RTVSPost2010PropOp52
 70
     0
102
RTVSPost2010Prop53
 90
        2
102
RTVSPost2010PropOp53
 70
     1
102
RTVSPost2010Prop54
  1
strokes_ogs.tif
102
RTVSPost2010PropOp54
 70
     1
102
RTVSPost2010Prop55
280
     0
102
RTVSPost2010PropOp55
 70
     1
102
RTVSPost2010Prop56
140
1.0
102
RTVSPost2010PropOp56
 70
     1
102
RTVSPost2010Prop57
140
1.0
102
RTVSPost2010PropOp57
 70
     1
102
RTVSPropertyOp0
 70
     1
102
RTVSPropertyOp1
 70
     1
102
RTVSPropertyOp2
 70
     1
102
RTVSPropertyOp3
 70
     1
102
RTVSPropertyOp4
 70
     1
102
RTVSPropertyOp5
 70
     1
102
RTVSPropertyOp6
 70
     1
102
RTVSPropertyOp7
 70
     1
102
RTVSPropertyOp8
 70
     1
102
RTVSPropertyOp9
 70
     1
102
RTVSPropertyOp10
 70
     1
102
RTVSPropertyOp11
 70
     1
102
RTVSPropertyOp12
 70
     1
102
RTVSPropertyOp13
 70
     1
102
RTVSPropertyOp14
 70
     1
102
RTVSPropertyOp15
 70
     1
102
RTVSPropertyOp16
 70
     1
102
RTVSPropertyOp17
 70
     1
102
RTVSPropertyOp18
 70
     1
102
RTVSPropertyOp19
 70
     1
102
RTVSPropertyOp20
 70
     1
102
RTVSPropertyOp21
 70
     1
102
RTVSPropertyOp22
 70
     1
102
RTVSPropertyOp23
 70
     1
102
RTVSPropertyOp24
 70
     1
102
RTVSPropertyOp25
 70
     1
102
RTVSPropertyOp26
 70
     1
102
RTVSPropertyOp27
 70
     1
102
RTVSPropertyOp28
 70
     1
102
RTVSPropertyOp29
 70
     1
102
RTVSPropertyOp30
 70
     1
102
RTVSPropertyOp31
 70
     1
102
RTVSPropertyOp32
 70
     1
102
RTVSPropertyOp33
 70
     1
102
RTVSPropertyOp34
 70
     1
102
RTVSPropertyOp35
 70
     1
102
RTVSPropertyOp36
 70
     1
102
RTVSPropertyOp37
 70
     1
102
RTVSPropertyOp38
 70
     1
102
RTVSPropertyOp39
 70
     1
102
RTVSPropertyOp40
 70
     1
102
RTVSPropertyOp41
 70
     1
102
RTVSPropertyOp42
 70
     1
102
RTVSPropertyOp43
 70
     1
102
RTVSPropertyOp44
 70
     1
102
RTVSPropertyOp45
 70
     1
102
RTVSPropertyOp46
 70
     1
102
RTVSPropertyOp47
 70
     1
102
RTVSPropertyOp48
 70
     1
102
RTVSPropertyOp49
 70
     1
102
RTVSPropertyOp50
 70
     1
102
RTVSPropertyOp51
 70
     0
102
RTVSPropertyOp52
 70
     0
102
RTVSPropertyOp53
 70
     1
102
RTVSPropertyOp54
 70
     1
102
RTVSPropertyOp55
 70
     1
102
RTVSPropertyOp56
 70
     1
102
RTVSPropertyOp57
 70
     1
102
RTVSPropertyOp58
 70
     1
102
RTVSPropertyOp59
 70
     1
102
RTVSPropertyOp60
 70
     1
102
RTVSPropertyOp61
 70
     1
102
RTVSPropertyOp62
 70
     1
  0
XRECORD
  5
176A4
102
{ACAD_REACTORS
330
176A3
102
}
330
176A3
100
AcDbXrecord
280
     1
102
RTVSPost2010Prop28
280
     0
102
RTVSPost2010PropOp28
 70
     1
102
RTVSPost2010Prop29
280
     1
102
RTVSPost2010PropOp29
 70
     1
102
RTVSPost2010Prop30
280
     1
102
RTVSPost2010PropOp30
 70
     1
102
RTVSPost2010Prop31
280
     0
102
RTVSPost2010PropOp31
 70
     1
102
RTVSPost2010Prop32
280
     0
102
RTVSPost2010PropOp32
 70
     1
102
RTVSPost2010Prop33
280
     0
102
RTVSPost2010PropOp33
 70
     1
102
RTVSPost2010Prop34
280
     0
102
RTVSPost2010PropOp34
 70
     1
102
RTVSPost2010Prop35
280
     0
102
RTVSPost2010PropOp35
 70
     1
102
RTVSPost2010Prop36
280
     0
102
RTVSPost2010PropOp36
 70
     1
102
RTVSPost2010Prop37
 90
       50
102
RTVSPost2010PropOp37
 70
     1
102
RTVSPost2010Prop38
140
0.0
102
RTVSPost2010PropOp38
 70
     1
102
RTVSPost2010Prop39
140
1.0
102
RTVSPost2010PropOp39
 70
     1
102
RTVSPost2010Prop40
 90
        0
102
RTVSPost2010PropOp40
 70
     1
102
RTVSPost2010Prop41ColorIndex
 90
       18
102
RTVSPost2010Prop41ColorRGB
 90
        0
102
RTVSPost2010PropOp41
 70
     1
102
RTVSPost2010Prop42
 90
       50
102
RTVSPost2010PropOp42
 70
     1
102
RTVSPost2010Prop43
 90
        3
102
RTVSPost2010PropOp43
 70
     1
102
RTVSPost2010Prop44ColorIndex
 90
        5
102
RTVSPost2010Prop44ColorRGB
 90
      255
102
RTVSPost2010PropOp44
 70
     1
102
RTVSPost2010Prop45
280
     0
102
RTVSPost2010PropOp45
 70
     1
102
RTVSPost2010Prop46
 90
       50
102
RTVSPost2010PropOp46
 70
     1
102
RTVSPost2010Prop47
 90
       50
102
RTVSPost2010PropOp47
 70
     1
102
RTVSPost2010Prop48
 90
       50
102
RTVSPost2010PropOp48
 70
     1
102
RTVSPost2010Prop49
280
     0
102
RTVSPost2010PropOp49
 70
     1
102
RTVSPost2010Prop50
 90
       50
102
RTVSPost2010PropOp50
 70
     1
102
RTVSPost2010Prop51ColorIndex
 90
      256
102
RTVSPost2010Prop51ColorRGB
 90
-16777216
102
RTVSPost2010PropOp51
 70
     0
102
RTVSPost2010Prop52
140
1.0
102
RTVSPost2010PropOp52
 70
     0
102
RTVSPost2010Prop53
 90
        2
102
RTVSPost2010PropOp53
 70
     1
102
RTVSPost2010Prop54
  1
strokes_ogs.tif
102
RTVSPost2010PropOp54
 70
     1
102
RTVSPost2010Prop55
280
     0
102
RTVSPost2010PropOp55
 70
     1
102
RTVSPost2010Prop56
140
1.0
102
RTVSPost2010PropOp56
 70
     1
102
RTVSPost2010Prop57
140
1.0
102
RTVSPost2010PropOp57
 70
     1
102
RTVSPropertyOp0
 70
     1
102
RTVSPropertyOp1
 70
     1
102
RTVSPropertyOp2
 70
     1
102
RTVSPropertyOp3
 70
     1
102
RTVSPropertyOp4
 70
     1
102
RTVSPropertyOp5
 70
     1
102
RTVSPropertyOp6
 70
     1
102
RTVSPropertyOp7
 70
     1
102
RTVSPropertyOp8
 70
     1
102
RTVSPropertyOp9
 70
     1
102
RTVSPropertyOp10
 70
     1
102
RTVSPropertyOp11
 70
     1
102
RTVSPropertyOp12
 70
     1
102
RTVSPropertyOp13
 70
     1
102
RTVSPropertyOp14
 70
     1
102
RTVSPropertyOp15
 70
     1
102
RTVSPropertyOp16
 70
     1
102
RTVSPropertyOp17
 70
     1
102
RTVSPropertyOp18
 70
     1
102
RTVSPropertyOp19
 70
     1
102
RTVSPropertyOp20
 70
     1
102
RTVSPropertyOp21
 70
     1
102
RTVSPropertyOp22
 70
     1
102
RTVSPropertyOp23
 70
     1
102
RTVSPropertyOp24
 70
     1
102
RTVSPropertyOp25
 70
     1
102
RTVSPropertyOp26
 70
     1
102
RTVSPropertyOp27
 70
     1
102
RTVSPropertyOp28
 70
     1
102
RTVSPropertyOp29
 70
     1
102
RTVSPropertyOp30
 70
     1
102
RTVSPropertyOp31
 70
     1
102
RTVSPropertyOp32
 70
     1
102
RTVSPropertyOp33
 70
     1
102
RTVSPropertyOp34
 70
     1
102
RTVSPropertyOp35
 70
     1
102
RTVSPropertyOp36
 70
     1
102
RTVSPropertyOp37
 70
     1
102
RTVSPropertyOp38
 70
     1
102
RTVSPropertyOp39
 70
     1
102
RTVSPropertyOp40
 70
     1
102
RTVSPropertyOp41
 70
     1
102
RTVSPropertyOp42
 70
     1
102
RTVSPropertyOp43
 70
     1
102
RTVSPropertyOp44
 70
     1
102
RTVSPropertyOp45
 70
     1
102
RTVSPropertyOp46
 70
     1
102
RTVSPropertyOp47
 70
     1
102
RTVSPropertyOp48
 70
     1
102
RTVSPropertyOp49
 70
     1
102
RTVSPropertyOp50
 70
     1
102
RTVSPropertyOp51
 70
     0
102
RTVSPropertyOp52
 70
     0
102
RTVSPropertyOp53
 70
     1
102
RTVSPropertyOp54
 70
     1
102
RTVSPropertyOp55
 70
     1
102
RTVSPropertyOp56
 70
     1
102
RTVSPropertyOp57
 70
     1
102
RTVSPropertyOp58
 70
     1
102
RTVSPropertyOp59
 70
     1
102
RTVSPropertyOp60
 70
     1
102
RTVSPropertyOp61
 70
     1
102
RTVSPropertyOp62
 70
     1
  0
XRECORD
  5
176BA
102
{ACAD_REACTORS
330
176B9
102
}
330
176B9
100
AcDbXrecord
280
     1
102
RTVSPost2010Prop28
280
     0
102
RTVSPost2010PropOp28
 70
     1
102
RTVSPost2010Prop29
280
     1
102
RTVSPost2010PropOp29
 70
     1
102
RTVSPost2010Prop30
280
     1
102
RTVSPost2010PropOp30
 70
     1
102
RTVSPost2010Prop31
280
     0
102
RTVSPost2010PropOp31
 70
     1
102
RTVSPost2010Prop32
280
     0
102
RTVSPost2010PropOp32
 70
     1
102
RTVSPost2010Prop33
280
     0
102
RTVSPost2010PropOp33
 70
     1
102
RTVSPost2010Prop34
280
     0
102
RTVSPost2010PropOp34
 70
     1
102
RTVSPost2010Prop35
280
     0
102
RTVSPost2010PropOp35
 70
     1
102
RTVSPost2010Prop36
280
     0
102
RTVSPost2010PropOp36
 70
     1
102
RTVSPost2010Prop37
 90
       50
102
RTVSPost2010PropOp37
 70
     1
102
RTVSPost2010Prop38
140
0.0
102
RTVSPost2010PropOp38
 70
     1
102
RTVSPost2010Prop39
140
1.0
102
RTVSPost2010PropOp39
 70
     1
102
RTVSPost2010Prop40
 90
        0
102
RTVSPost2010PropOp40
 70
     1
102
RTVSPost2010Prop41ColorIndex
 90
       18
102
RTVSPost2010Prop41ColorRGB
 90
        0
102
RTVSPost2010PropOp41
 70
     1
102
RTVSPost2010Prop42
 90
       50
102
RTVSPost2010PropOp42
 70
     1
102
RTVSPost2010Prop43
 90
        3
102
RTVSPost2010PropOp43
 70
     1
102
RTVSPost2010Prop44ColorIndex
 90
        5
102
RTVSPost2010Prop44ColorRGB
 90
      255
102
RTVSPost2010PropOp44
 70
     1
102
RTVSPost2010Prop45
280
     0
102
RTVSPost2010PropOp45
 70
     1
102
RTVSPost2010Prop46
 90
       50
102
RTVSPost2010PropOp46
 70
     1
102
RTVSPost2010Prop47
 90
       50
102
RTVSPost2010PropOp47
 70
     1
102
RTVSPost2010Prop48
 90
       50
102
RTVSPost2010PropOp48
 70
     1
102
RTVSPost2010Prop49
280
     0
102
RTVSPost2010PropOp49
 70
     1
102
RTVSPost2010Prop50
 90
       50
102
RTVSPost2010PropOp50
 70
     1
102
RTVSPost2010Prop51ColorIndex
 90
      256
102
RTVSPost2010Prop51ColorRGB
 90
-16777216
102
RTVSPost2010PropOp51
 70
     0
102
RTVSPost2010Prop52
140
1.0
102
RTVSPost2010PropOp52
 70
     0
102
RTVSPost2010Prop53
 90
        2
102
RTVSPost2010PropOp53
 70
     1
102
RTVSPost2010Prop54
  1
strokes_ogs.tif
102
RTVSPost2010PropOp54
 70
     1
102
RTVSPost2010Prop55
280
     0
102
RTVSPost2010PropOp55
 70
     1
102
RTVSPost2010Prop56
140
1.0
102
RTVSPost2010PropOp56
 70
     1
102
RTVSPost2010Prop57
140
1.0
102
RTVSPost2010PropOp57
 70
     1
102
RTVSPropertyOp0
 70
     0
102
RTVSPropertyOp1
 70
     0
102
RTVSPropertyOp2
 70
     0
102
RTVSPropertyOp3
 70
     0
102
RTVSPropertyOp4
 70
     0
102
RTVSPropertyOp5
 70
     0
102
RTVSPropertyOp6
 70
     0
102
RTVSPropertyOp7
 70
     0
102
RTVSPropertyOp8
 70
     0
102
RTVSPropertyOp9
 70
     0
102
RTVSPropertyOp10
 70
     0
102
RTVSPropertyOp11
 70
     0
102
RTVSPropertyOp12
 70
     0
102
RTVSPropertyOp13
 70
     0
102
RTVSPropertyOp14
 70
     2
102
RTVSPropertyOp15
 70
     0
102
RTVSPropertyOp16
 70
     0
102
RTVSPropertyOp17
 70
     0
102
RTVSPropertyOp18
 70
     0
102
RTVSPropertyOp19
 70
     0
102
RTVSPropertyOp20
 70
     0
102
RTVSPropertyOp21
 70
     0
102
RTVSPropertyOp22
 70
     0
102
RTVSPropertyOp23
 70
     0
102
RTVSPropertyOp24
 70
     0
102
RTVSPropertyOp25
 70
     0
102
RTVSPropertyOp26
 70
     0
102
RTVSPropertyOp27
 70
     0
102
RTVSPropertyOp28
 70
     1
102
RTVSPropertyOp29
 70
     1
102
RTVSPropertyOp30
 70
     1
102
RTVSPropertyOp31
 70
     1
102
RTVSPropertyOp32
 70
     1
102
RTVSPropertyOp33
 70
     1
102
RTVSPropertyOp34
 70
     1
102
RTVSPropertyOp35
 70
     1
102
RTVSPropertyOp36
 70
     1
102
RTVSPropertyOp37
 70
     1
102
RTVSPropertyOp38
 70
     1
102
RTVSPropertyOp39
 70
     1
102
RTVSPropertyOp40
 70
     1
102
RTVSPropertyOp41
 70
     1
102
RTVSPropertyOp42
 70
     1
102
RTVSPropertyOp43
 70
     1
102
RTVSPropertyOp44
 70
     1
102
RTVSPropertyOp45
 70
     1
102
RTVSPropertyOp46
 70
     1
102
RTVSPropertyOp47
 70
     1
102
RTVSPropertyOp48
 70
     1
102
RTVSPropertyOp49
 70
     1
102
RTVSPropertyOp50
 70
     1
102
RTVSPropertyOp51
 70
     0
102
RTVSPropertyOp52
 70
     0
102
RTVSPropertyOp53
 70
     1
102
RTVSPropertyOp54
 70
     1
102
RTVSPropertyOp55
 70
     1
102
RTVSPropertyOp56
 70
     1
102
RTVSPropertyOp57
 70
     1
102
RTVSPropertyOp58
 70
     1
102
RTVSPropertyOp59
 70
     1
102
RTVSPropertyOp60
 70
     1
102
RTVSPropertyOp61
 70
     1
102
RTVSPropertyOp62
 70
     1
  0
XRECORD
  5
176AC
102
{ACAD_REACTORS
330
176AB
102
}
330
176AB
100
AcDbXrecord
280
     1
102
RTVSPost2010Prop28
280
     0
102
RTVSPost2010PropOp28
 70
     1
102
RTVSPost2010Prop29
280
     1
102
RTVSPost2010PropOp29
 70
     1
102
RTVSPost2010Prop30
280
     1
102
RTVSPost2010PropOp30
 70
     1
102
RTVSPost2010Prop31
280
     0
102
RTVSPost2010PropOp31
 70
     1
102
RTVSPost2010Prop32
280
     0
102
RTVSPost2010PropOp32
 70
     1
102
RTVSPost2010Prop33
280
     0
102
RTVSPost2010PropOp33
 70
     1
102
RTVSPost2010Prop34
280
     0
102
RTVSPost2010PropOp34
 70
     1
102
RTVSPost2010Prop35
280
     0
102
RTVSPost2010PropOp35
 70
     1
102
RTVSPost2010Prop36
280
     0
102
RTVSPost2010PropOp36
 70
     1
102
RTVSPost2010Prop37
 90
       50
102
RTVSPost2010PropOp37
 70
     1
102
RTVSPost2010Prop38
140
0.0
102
RTVSPost2010PropOp38
 70
     1
102
RTVSPost2010Prop39
140
1.0
102
RTVSPost2010PropOp39
 70
     1
102
RTVSPost2010Prop40
 90
        0
102
RTVSPost2010PropOp40
 70
     1
102
RTVSPost2010Prop41ColorIndex
 90
       18
102
RTVSPost2010Prop41ColorRGB
 90
        0
102
RTVSPost2010PropOp41
 70
     1
102
RTVSPost2010Prop42
 90
       50
102
RTVSPost2010PropOp42
 70
     1
102
RTVSPost2010Prop43
 90
        3
102
RTVSPost2010PropOp43
 70
     1
102
RTVSPost2010Prop44ColorIndex
 90
        5
102
RTVSPost2010Prop44ColorRGB
 90
      255
102
RTVSPost2010PropOp44
 70
     1
102
RTVSPost2010Prop45
280
     0
102
RTVSPost2010PropOp45
 70
     1
102
RTVSPost2010Prop46
 90
       50
102
RTVSPost2010PropOp46
 70
     1
102
RTVSPost2010Prop47
 90
       50
102
RTVSPost2010PropOp47
 70
     1
102
RTVSPost2010Prop48
 90
       50
102
RTVSPost2010PropOp48
 70
     1
102
RTVSPost2010Prop49
280
     0
102
RTVSPost2010PropOp49
 70
     1
102
RTVSPost2010Prop50
 90
       50
102
RTVSPost2010PropOp50
 70
     1
102
RTVSPost2010Prop51ColorIndex
 90
      256
102
RTVSPost2010Prop51ColorRGB
 90
-16777216
102
RTVSPost2010PropOp51
 70
     0
102
RTVSPost2010Prop52
140
1.0
102
RTVSPost2010PropOp52
 70
     0
102
RTVSPost2010Prop53
 90
        2
102
RTVSPost2010PropOp53
 70
     1
102
RTVSPost2010Prop54
  1
strokes_ogs.tif
102
RTVSPost2010PropOp54
 70
     1
102
RTVSPost2010Prop55
280
     0
102
RTVSPost2010PropOp55
 70
     1
102
RTVSPost2010Prop56
140
1.0
102
RTVSPost2010PropOp56
 70
     1
102
RTVSPost2010Prop57
140
1.0
102
RTVSPost2010PropOp57
 70
     1
102
RTVSPropertyOp0
 70
     1
102
RTVSPropertyOp1
 70
     1
102
RTVSPropertyOp2
 70
     1
102
RTVSPropertyOp3
 70
     1
102
RTVSPropertyOp4
 70
     1
102
RTVSPropertyOp5
 70
     1
102
RTVSPropertyOp6
 70
     1
102
RTVSPropertyOp7
 70
     1
102
RTVSPropertyOp8
 70
     1
102
RTVSPropertyOp9
 70
     1
102
RTVSPropertyOp10
 70
     1
102
RTVSPropertyOp11
 70
     1
102
RTVSPropertyOp12
 70
     1
102
RTVSPropertyOp13
 70
     1
102
RTVSPropertyOp14
 70
     1
102
RTVSPropertyOp15
 70
     1
102
RTVSPropertyOp16
 70
     1
102
RTVSPropertyOp17
 70
     1
102
RTVSPropertyOp18
 70
     1
102
RTVSPropertyOp19
 70
     1
102
RTVSPropertyOp20
 70
     1
102
RTVSPropertyOp21
 70
     1
102
RTVSPropertyOp22
 70
     1
102
RTVSPropertyOp23
 70
     1
102
RTVSPropertyOp24
 70
     1
102
RTVSPropertyOp25
 70
     1
102
RTVSPropertyOp26
 70
     1
102
RTVSPropertyOp27
 70
     1
102
RTVSPropertyOp28
 70
     1
102
RTVSPropertyOp29
 70
     1
102
RTVSPropertyOp30
 70
     1
102
RTVSPropertyOp31
 70
     1
102
RTVSPropertyOp32
 70
     1
102
RTVSPropertyOp33
 70
     1
102
RTVSPropertyOp34
 70
     1
102
RTVSPropertyOp35
 70
     1
102
RTVSPropertyOp36
 70
     1
102
RTVSPropertyOp37
 70
     1
102
RTVSPropertyOp38
 70
     1
102
RTVSPropertyOp39
 70
     1
102
RTVSPropertyOp40
 70
     1
102
RTVSPropertyOp41
 70
     1
102
RTVSPropertyOp42
 70
     1
102
RTVSPropertyOp43
 70
     1
102
RTVSPropertyOp44
 70
     1
102
RTVSPropertyOp45
 70
     1
102
RTVSPropertyOp46
 70
     1
102
RTVSPropertyOp47
 70
     1
102
RTVSPropertyOp48
 70
     1
102
RTVSPropertyOp49
 70
     1
102
RTVSPropertyOp50
 70
     1
102
RTVSPropertyOp51
 70
     0
102
RTVSPropertyOp52
 70
     0
102
RTVSPropertyOp53
 70
     1
102
RTVSPropertyOp54
 70
     1
102
RTVSPropertyOp55
 70
     1
102
RTVSPropertyOp56
 70
     1
102
RTVSPropertyOp57
 70
     1
102
RTVSPropertyOp58
 70
     1
102
RTVSPropertyOp59
 70
     1
102
RTVSPropertyOp60
 70
     1
102
RTVSPropertyOp61
 70
     1
102
RTVSPropertyOp62
 70
     1
  0
XRECORD
  5
17690
102
{ACAD_REACTORS
330
1768F
102
}
330
1768F
100
AcDbXrecord
280
     1
102
RTVSPost2010Prop28
280
     0
102
RTVSPost2010PropOp28
 70
     1
102
RTVSPost2010Prop29
280
     1
102
RTVSPost2010PropOp29
 70
     1
102
RTVSPost2010Prop30
280
     1
102
RTVSPost2010PropOp30
 70
     1
102
RTVSPost2010Prop31
280
     0
102
RTVSPost2010PropOp31
 70
     1
102
RTVSPost2010Prop32
280
     0
102
RTVSPost2010PropOp32
 70
     1
102
RTVSPost2010Prop33
280
     0
102
RTVSPost2010PropOp33
 70
     1
102
RTVSPost2010Prop34
280
     0
102
RTVSPost2010PropOp34
 70
     1
102
RTVSPost2010Prop35
280
     0
102
RTVSPost2010PropOp35
 70
     1
102
RTVSPost2010Prop36
280
     0
102
RTVSPost2010PropOp36
 70
     1
102
RTVSPost2010Prop37
 90
       50
102
RTVSPost2010PropOp37
 70
     1
102
RTVSPost2010Prop38
140
0.0
102
RTVSPost2010PropOp38
 70
     1
102
RTVSPost2010Prop39
140
1.0
102
RTVSPost2010PropOp39
 70
     1
102
RTVSPost2010Prop40
 90
        0
102
RTVSPost2010PropOp40
 70
     1
102
RTVSPost2010Prop41ColorIndex
 90
       18
102
RTVSPost2010Prop41ColorRGB
 90
        0
102
RTVSPost2010PropOp41
 70
     1
102
RTVSPost2010Prop42
 90
       50
102
RTVSPost2010PropOp42
 70
     1
102
RTVSPost2010Prop43
 90
        3
102
RTVSPost2010PropOp43
 70
     1
102
RTVSPost2010Prop44ColorIndex
 90
        5
102
RTVSPost2010Prop44ColorRGB
 90
      255
102
RTVSPost2010PropOp44
 70
     1
102
RTVSPost2010Prop45
280
     0
102
RTVSPost2010PropOp45
 70
     1
102
RTVSPost2010Prop46
 90
       50
102
RTVSPost2010PropOp46
 70
     1
102
RTVSPost2010Prop47
 90
       50
102
RTVSPost2010PropOp47
 70
     1
102
RTVSPost2010Prop48
 90
       50
102
RTVSPost2010PropOp48
 70
     1
102
RTVSPost2010Prop49
280
     0
102
RTVSPost2010PropOp49
 70
     1
102
RTVSPost2010Prop50
 90
       50
102
RTVSPost2010PropOp50
 70
     1
102
RTVSPost2010Prop51ColorIndex
 90
      256
102
RTVSPost2010Prop51ColorRGB
 90
-16777216
102
RTVSPost2010PropOp51
 70
     0
102
RTVSPost2010Prop52
140
1.0
102
RTVSPost2010PropOp52
 70
     0
102
RTVSPost2010Prop53
 90
        2
102
RTVSPost2010PropOp53
 70
     1
102
RTVSPost2010Prop54
  1
strokes_ogs.tif
102
RTVSPost2010PropOp54
 70
     1
102
RTVSPost2010Prop55
280
     0
102
RTVSPost2010PropOp55
 70
     1
102
RTVSPost2010Prop56
140
1.0
102
RTVSPost2010PropOp56
 70
     1
102
RTVSPost2010Prop57
140
1.0
102
RTVSPost2010PropOp57
 70
     1
102
RTVSPropertyOp0
 70
     1
102
RTVSPropertyOp1
 70
     1
102
RTVSPropertyOp2
 70
     1
102
RTVSPropertyOp3
 70
     1
102
RTVSPropertyOp4
 70
     1
102
RTVSPropertyOp5
 70
     1
102
RTVSPropertyOp6
 70
     1
102
RTVSPropertyOp7
 70
     1
102
RTVSPropertyOp8
 70
     1
102
RTVSPropertyOp9
 70
     1
102
RTVSPropertyOp10
 70
     1
102
RTVSPropertyOp11
 70
     1
102
RTVSPropertyOp12
 70
     1
102
RTVSPropertyOp13
 70
     1
102
RTVSPropertyOp14
 70
     1
102
RTVSPropertyOp15
 70
     1
102
RTVSPropertyOp16
 70
     1
102
RTVSPropertyOp17
 70
     1
102
RTVSPropertyOp18
 70
     1
102
RTVSPropertyOp19
 70
     1
102
RTVSPropertyOp20
 70
     1
102
RTVSPropertyOp21
 70
     1
102
RTVSPropertyOp22
 70
     1
102
RTVSPropertyOp23
 70
     1
102
RTVSPropertyOp24
 70
     1
102
RTVSPropertyOp25
 70
     1
102
RTVSPropertyOp26
 70
     1
102
RTVSPropertyOp27
 70
     1
102
RTVSPropertyOp28
 70
     1
102
RTVSPropertyOp29
 70
     1
102
RTVSPropertyOp30
 70
     1
102
RTVSPropertyOp31
 70
     1
102
RTVSPropertyOp32
 70
     1
102
RTVSPropertyOp33
 70
     1
102
RTVSPropertyOp34
 70
     1
102
RTVSPropertyOp35
 70
     1
102
RTVSPropertyOp36
 70
     1
102
RTVSPropertyOp37
 70
     1
102
RTVSPropertyOp38
 70
     1
102
RTVSPropertyOp39
 70
     1
102
RTVSPropertyOp40
 70
     1
102
RTVSPropertyOp41
 70
     1
102
RTVSPropertyOp42
 70
     1
102
RTVSPropertyOp43
 70
     1
102
RTVSPropertyOp44
 70
     1
102
RTVSPropertyOp45
 70
     1
102
RTVSPropertyOp46
 70
     1
102
RTVSPropertyOp47
 70
     1
102
RTVSPropertyOp48
 70
     1
102
RTVSPropertyOp49
 70
     1
102
RTVSPropertyOp50
 70
     1
102
RTVSPropertyOp51
 70
     0
102
RTVSPropertyOp52
 70
     0
102
RTVSPropertyOp53
 70
     1
102
RTVSPropertyOp54
 70
     1
102
RTVSPropertyOp55
 70
     1
102
RTVSPropertyOp56
 70
     1
102
RTVSPropertyOp57
 70
     1
102
RTVSPropertyOp58
 70
     1
102
RTVSPropertyOp59
 70
     1
102
RTVSPropertyOp60
 70
     1
102
RTVSPropertyOp61
 70
     1
102
RTVSPropertyOp62
 70
     1
  0
XRECORD
  5
17692
102
{ACAD_REACTORS
330
17691
102
}
330
17691
100
AcDbXrecord
280
     1
102
RTVSPost2010Prop28
280
     0
102
RTVSPost2010PropOp28
 70
     1
102
RTVSPost2010Prop29
280
     1
102
RTVSPost2010PropOp29
 70
     1
102
RTVSPost2010Prop30
280
     1
102
RTVSPost2010PropOp30
 70
     1
102
RTVSPost2010Prop31
280
     0
102
RTVSPost2010PropOp31
 70
     1
102
RTVSPost2010Prop32
280
     0
102
RTVSPost2010PropOp32
 70
     1
102
RTVSPost2010Prop33
280
     0
102
RTVSPost2010PropOp33
 70
     1
102
RTVSPost2010Prop34
280
     0
102
RTVSPost2010PropOp34
 70
     1
102
RTVSPost2010Prop35
280
     0
102
RTVSPost2010PropOp35
 70
     1
102
RTVSPost2010Prop36
280
     0
102
RTVSPost2010PropOp36
 70
     1
102
RTVSPost2010Prop37
 90
       50
102
RTVSPost2010PropOp37
 70
     1
102
RTVSPost2010Prop38
140
0.0
102
RTVSPost2010PropOp38
 70
     1
102
RTVSPost2010Prop39
140
1.0
102
RTVSPost2010PropOp39
 70
     1
102
RTVSPost2010Prop40
 90
        0
102
RTVSPost2010PropOp40
 70
     1
102
RTVSPost2010Prop41ColorIndex
 90
       18
102
RTVSPost2010Prop41ColorRGB
 90
        0
102
RTVSPost2010PropOp41
 70
     1
102
RTVSPost2010Prop42
 90
       50
102
RTVSPost2010PropOp42
 70
     1
102
RTVSPost2010Prop43
 90
        3
102
RTVSPost2010PropOp43
 70
     1
102
RTVSPost2010Prop44ColorIndex
 90
        5
102
RTVSPost2010Prop44ColorRGB
 90
      255
102
RTVSPost2010PropOp44
 70
     1
102
RTVSPost2010Prop45
280
     0
102
RTVSPost2010PropOp45
 70
     1
102
RTVSPost2010Prop46
 90
       50
102
RTVSPost2010PropOp46
 70
     1
102
RTVSPost2010Prop47
 90
       50
102
RTVSPost2010PropOp47
 70
     1
102
RTVSPost2010Prop48
 90
       50
102
RTVSPost2010PropOp48
 70
     1
102
RTVSPost2010Prop49
280
     0
102
RTVSPost2010PropOp49
 70
     1
102
RTVSPost2010Prop50
 90
       50
102
RTVSPost2010PropOp50
 70
     1
102
RTVSPost2010Prop51ColorIndex
 90
      256
102
RTVSPost2010Prop51ColorRGB
 90
-16777216
102
RTVSPost2010PropOp51
 70
     0
102
RTVSPost2010Prop52
140
1.0
102
RTVSPost2010PropOp52
 70
     0
102
RTVSPost2010Prop53
 90
        2
102
RTVSPost2010PropOp53
 70
     1
102
RTVSPost2010Prop54
  1
strokes_ogs.tif
102
RTVSPost2010PropOp54
 70
     1
102
RTVSPost2010Prop55
280
     0
102
RTVSPost2010PropOp55
 70
     1
102
RTVSPost2010Prop56
140
1.0
102
RTVSPost2010PropOp56
 70
     1
102
RTVSPost2010Prop57
140
1.0
102
RTVSPost2010PropOp57
 70
     1
102
RTVSPropertyOp0
 70
     1
102
RTVSPropertyOp1
 70
     1
102
RTVSPropertyOp2
 70
     1
102
RTVSPropertyOp3
 70
     1
102
RTVSPropertyOp4
 70
     1
102
RTVSPropertyOp5
 70
     1
102
RTVSPropertyOp6
 70
     1
102
RTVSPropertyOp7
 70
     1
102
RTVSPropertyOp8
 70
     1
102
RTVSPropertyOp9
 70
     1
102
RTVSPropertyOp10
 70
     1
102
RTVSPropertyOp11
 70
     1
102
RTVSPropertyOp12
 70
     1
102
RTVSPropertyOp13
 70
     1
102
RTVSPropertyOp14
 70
     1
102
RTVSPropertyOp15
 70
     1
102
RTVSPropertyOp16
 70
     1
102
RTVSPropertyOp17
 70
     1
102
RTVSPropertyOp18
 70
     1
102
RTVSPropertyOp19
 70
     1
102
RTVSPropertyOp20
 70
     1
102
RTVSPropertyOp21
 70
     1
102
RTVSPropertyOp22
 70
     1
102
RTVSPropertyOp23
 70
     1
102
RTVSPropertyOp24
 70
     1
102
RTVSPropertyOp25
 70
     1
102
RTVSPropertyOp26
 70
     1
102
RTVSPropertyOp27
 70
     1
102
RTVSPropertyOp28
 70
     1
102
RTVSPropertyOp29
 70
     1
102
RTVSPropertyOp30
 70
     1
102
RTVSPropertyOp31
 70
     1
102
RTVSPropertyOp32
 70
     1
102
RTVSPropertyOp33
 70
     1
102
RTVSPropertyOp34
 70
     1
102
RTVSPropertyOp35
 70
     1
102
RTVSPropertyOp36
 70
     1
102
RTVSPropertyOp37
 70
     1
102
RTVSPropertyOp38
 70
     1
102
RTVSPropertyOp39
 70
     1
102
RTVSPropertyOp40
 70
     1
102
RTVSPropertyOp41
 70
     1
102
RTVSPropertyOp42
 70
     1
102
RTVSPropertyOp43
 70
     1
102
RTVSPropertyOp44
 70
     1
102
RTVSPropertyOp45
 70
     1
102
RTVSPropertyOp46
 70
     1
102
RTVSPropertyOp47
 70
     1
102
RTVSPropertyOp48
 70
     1
102
RTVSPropertyOp49
 70
     1
102
RTVSPropertyOp50
 70
     1
102
RTVSPropertyOp51
 70
     0
102
RTVSPropertyOp52
 70
     0
102
RTVSPropertyOp53
 70
     1
102
RTVSPropertyOp54
 70
     1
102
RTVSPropertyOp55
 70
     1
102
RTVSPropertyOp56
 70
     1
102
RTVSPropertyOp57
 70
     1
102
RTVSPropertyOp58
 70
     1
102
RTVSPropertyOp59
 70
     1
102
RTVSPropertyOp60
 70
     1
102
RTVSPropertyOp61
 70
     1
102
RTVSPropertyOp62
 70
     1
  0
XRECORD
  5
17694
102
{ACAD_REACTORS
330
17693
102
}
330
17693
100
AcDbXrecord
280
     1
102
RTVSPost2010Prop28
280
     0
102
RTVSPost2010PropOp28
 70
     1
102
RTVSPost2010Prop29
280
     1
102
RTVSPost2010PropOp29
 70
     1
102
RTVSPost2010Prop30
280
     1
102
RTVSPost2010PropOp30
 70
     1
102
RTVSPost2010Prop31
280
     0
102
RTVSPost2010PropOp31
 70
     1
102
RTVSPost2010Prop32
280
     0
102
RTVSPost2010PropOp32
 70
     1
102
RTVSPost2010Prop33
280
     0
102
RTVSPost2010PropOp33
 70
     1
102
RTVSPost2010Prop34
280
     0
102
RTVSPost2010PropOp34
 70
     1
102
RTVSPost2010Prop35
280
     0
102
RTVSPost2010PropOp35
 70
     1
102
RTVSPost2010Prop36
280
     0
102
RTVSPost2010PropOp36
 70
     1
102
RTVSPost2010Prop37
 90
       50
102
RTVSPost2010PropOp37
 70
     1
102
RTVSPost2010Prop38
140
0.0
102
RTVSPost2010PropOp38
 70
     1
102
RTVSPost2010Prop39
140
1.0
102
RTVSPost2010PropOp39
 70
     1
102
RTVSPost2010Prop40
 90
        0
102
RTVSPost2010PropOp40
 70
     1
102
RTVSPost2010Prop41ColorIndex
 90
       18
102
RTVSPost2010Prop41ColorRGB
 90
        0
102
RTVSPost2010PropOp41
 70
     1
102
RTVSPost2010Prop42
 90
       50
102
RTVSPost2010PropOp42
 70
     1
102
RTVSPost2010Prop43
 90
        3
102
RTVSPost2010PropOp43
 70
     1
102
RTVSPost2010Prop44ColorIndex
 90
        5
102
RTVSPost2010Prop44ColorRGB
 90
      255
102
RTVSPost2010PropOp44
 70
     1
102
RTVSPost2010Prop45
280
     0
102
RTVSPost2010PropOp45
 70
     1
102
RTVSPost2010Prop46
 90
       50
102
RTVSPost2010PropOp46
 70
     1
102
RTVSPost2010Prop47
 90
       50
102
RTVSPost2010PropOp47
 70
     1
102
RTVSPost2010Prop48
 90
       50
102
RTVSPost2010PropOp48
 70
     1
102
RTVSPost2010Prop49
280
     0
102
RTVSPost2010PropOp49
 70
     1
102
RTVSPost2010Prop50
 90
       50
102
RTVSPost2010PropOp50
 70
     1
102
RTVSPost2010Prop51ColorIndex
 90
      256
102
RTVSPost2010Prop51ColorRGB
 90
-16777216
102
RTVSPost2010PropOp51
 70
     0
102
RTVSPost2010Prop52
140
1.0
102
RTVSPost2010PropOp52
 70
     0
102
RTVSPost2010Prop53
 90
        2
102
RTVSPost2010PropOp53
 70
     1
102
RTVSPost2010Prop54
  1
strokes_ogs.tif
102
RTVSPost2010PropOp54
 70
     1
102
RTVSPost2010Prop55
280
     0
102
RTVSPost2010PropOp55
 70
     1
102
RTVSPost2010Prop56
140
1.0
102
RTVSPost2010PropOp56
 70
     1
102
RTVSPost2010Prop57
140
1.0
102
RTVSPost2010PropOp57
 70
     1
102
RTVSPropertyOp0
 70
     1
102
RTVSPropertyOp1
 70
     1
102
RTVSPropertyOp2
 70
     1
102
RTVSPropertyOp3
 70
     1
102
RTVSPropertyOp4
 70
     1
102
RTVSPropertyOp5
 70
     1
102
RTVSPropertyOp6
 70
     1
102
RTVSPropertyOp7
 70
     1
102
RTVSPropertyOp8
 70
     1
102
RTVSPropertyOp9
 70
     1
102
RTVSPropertyOp10
 70
     1
102
RTVSPropertyOp11
 70
     1
102
RTVSPropertyOp12
 70
     1
102
RTVSPropertyOp13
 70
     1
102
RTVSPropertyOp14
 70
     1
102
RTVSPropertyOp15
 70
     1
102
RTVSPropertyOp16
 70
     1
102
RTVSPropertyOp17
 70
     1
102
RTVSPropertyOp18
 70
     1
102
RTVSPropertyOp19
 70
     1
102
RTVSPropertyOp20
 70
     1
102
RTVSPropertyOp21
 70
     1
102
RTVSPropertyOp22
 70
     1
102
RTVSPropertyOp23
 70
     1
102
RTVSPropertyOp24
 70
     1
102
RTVSPropertyOp25
 70
     1
102
RTVSPropertyOp26
 70
     1
102
RTVSPropertyOp27
 70
     1
102
RTVSPropertyOp28
 70
     1
102
RTVSPropertyOp29
 70
     1
102
RTVSPropertyOp30
 70
     1
102
RTVSPropertyOp31
 70
     1
102
RTVSPropertyOp32
 70
     1
102
RTVSPropertyOp33
 70
     1
102
RTVSPropertyOp34
 70
     1
102
RTVSPropertyOp35
 70
     1
102
RTVSPropertyOp36
 70
     1
102
RTVSPropertyOp37
 70
     1
102
RTVSPropertyOp38
 70
     1
102
RTVSPropertyOp39
 70
     1
102
RTVSPropertyOp40
 70
     1
102
RTVSPropertyOp41
 70
     1
102
RTVSPropertyOp42
 70
     1
102
RTVSPropertyOp43
 70
     1
102
RTVSPropertyOp44
 70
     1
102
RTVSPropertyOp45
 70
     1
102
RTVSPropertyOp46
 70
     1
102
RTVSPropertyOp47
 70
     1
102
RTVSPropertyOp48
 70
     1
102
RTVSPropertyOp49
 70
     1
102
RTVSPropertyOp50
 70
     1
102
RTVSPropertyOp51
 70
     0
102
RTVSPropertyOp52
 70
     0
102
RTVSPropertyOp53
 70
     1
102
RTVSPropertyOp54
 70
     1
102
RTVSPropertyOp55
 70
     1
102
RTVSPropertyOp56
 70
     1
102
RTVSPropertyOp57
 70
     1
102
RTVSPropertyOp58
 70
     1
102
RTVSPropertyOp59
 70
     1
102
RTVSPropertyOp60
 70
     1
102
RTVSPropertyOp61
 70
     1
102
RTVSPropertyOp62
 70
     1
  0
XRECORD
  5
17696
102
{ACAD_REACTORS
330
17695
102
}
330
17695
100
AcDbXrecord
280
     1
102
RTVSPost2010Prop28
280
     0
102
RTVSPost2010PropOp28
 70
     1
102
RTVSPost2010Prop29
280
     1
102
RTVSPost2010PropOp29
 70
     1
102
RTVSPost2010Prop30
280
     1
102
RTVSPost2010PropOp30
 70
     1
102
RTVSPost2010Prop31
280
     0
102
RTVSPost2010PropOp31
 70
     1
102
RTVSPost2010Prop32
280
     0
102
RTVSPost2010PropOp32
 70
     1
102
RTVSPost2010Prop33
280
     0
102
RTVSPost2010PropOp33
 70
     1
102
RTVSPost2010Prop34
280
     0
102
RTVSPost2010PropOp34
 70
     1
102
RTVSPost2010Prop35
280
     0
102
RTVSPost2010PropOp35
 70
     1
102
RTVSPost2010Prop36
280
     0
102
RTVSPost2010PropOp36
 70
     1
102
RTVSPost2010Prop37
 90
       50
102
RTVSPost2010PropOp37
 70
     1
102
RTVSPost2010Prop38
140
0.0
102
RTVSPost2010PropOp38
 70
     1
102
RTVSPost2010Prop39
140
1.0
102
RTVSPost2010PropOp39
 70
     1
102
RTVSPost2010Prop40
 90
        0
102
RTVSPost2010PropOp40
 70
     1
102
RTVSPost2010Prop41ColorIndex
 90
       18
102
RTVSPost2010Prop41ColorRGB
 90
        0
102
RTVSPost2010PropOp41
 70
     1
102
RTVSPost2010Prop42
 90
       50
102
RTVSPost2010PropOp42
 70
     1
102
RTVSPost2010Prop43
 90
        3
102
RTVSPost2010PropOp43
 70
     1
102
RTVSPost2010Prop44ColorIndex
 90
        5
102
RTVSPost2010Prop44ColorRGB
 90
      255
102
RTVSPost2010PropOp44
 70
     1
102
RTVSPost2010Prop45
280
     0
102
RTVSPost2010PropOp45
 70
     1
102
RTVSPost2010Prop46
 90
       50
102
RTVSPost2010PropOp46
 70
     1
102
RTVSPost2010Prop47
 90
       50
102
RTVSPost2010PropOp47
 70
     1
102
RTVSPost2010Prop48
 90
       50
102
RTVSPost2010PropOp48
 70
     1
102
RTVSPost2010Prop49
280
     0
102
RTVSPost2010PropOp49
 70
     1
102
RTVSPost2010Prop50
 90
       50
102
RTVSPost2010PropOp50
 70
     1
102
RTVSPost2010Prop51ColorIndex
 90
      256
102
RTVSPost2010Prop51ColorRGB
 90
-16777216
102
RTVSPost2010PropOp51
 70
     0
102
RTVSPost2010Prop52
140
1.0
102
RTVSPost2010PropOp52
 70
     0
102
RTVSPost2010Prop53
 90
        2
102
RTVSPost2010PropOp53
 70
     1
102
RTVSPost2010Prop54
  1
strokes_ogs.tif
102
RTVSPost2010PropOp54
 70
     1
102
RTVSPost2010Prop55
280
     0
102
RTVSPost2010PropOp55
 70
     1
102
RTVSPost2010Prop56
140
1.0
102
RTVSPost2010PropOp56
 70
     1
102
RTVSPost2010Prop57
140
1.0
102
RTVSPost2010PropOp57
 70
     1
102
RTVSPropertyOp0
 70
     1
102
RTVSPropertyOp1
 70
     1
102
RTVSPropertyOp2
 70
     1
102
RTVSPropertyOp3
 70
     1
102
RTVSPropertyOp4
 70
     1
102
RTVSPropertyOp5
 70
     1
102
RTVSPropertyOp6
 70
     1
102
RTVSPropertyOp7
 70
     1
102
RTVSPropertyOp8
 70
     1
102
RTVSPropertyOp9
 70
     1
102
RTVSPropertyOp10
 70
     1
102
RTVSPropertyOp11
 70
     1
102
RTVSPropertyOp12
 70
     1
102
RTVSPropertyOp13
 70
     1
102
RTVSPropertyOp14
 70
     1
102
RTVSPropertyOp15
 70
     1
102
RTVSPropertyOp16
 70
     1
102
RTVSPropertyOp17
 70
     1
102
RTVSPropertyOp18
 70
     1
102
RTVSPropertyOp19
 70
     1
102
RTVSPropertyOp20
 70
     1
102
RTVSPropertyOp21
 70
     1
102
RTVSPropertyOp22
 70
     1
102
RTVSPropertyOp23
 70
     1
102
RTVSPropertyOp24
 70
     1
102
RTVSPropertyOp25
 70
     1
102
RTVSPropertyOp26
 70
     1
102
RTVSPropertyOp27
 70
     1
102
RTVSPropertyOp28
 70
     1
102
RTVSPropertyOp29
 70
     1
102
RTVSPropertyOp30
 70
     1
102
RTVSPropertyOp31
 70
     1
102
RTVSPropertyOp32
 70
     1
102
RTVSPropertyOp33
 70
     1
102
RTVSPropertyOp34
 70
     1
102
RTVSPropertyOp35
 70
     1
102
RTVSPropertyOp36
 70
     1
102
RTVSPropertyOp37
 70
     1
102
RTVSPropertyOp38
 70
     1
102
RTVSPropertyOp39
 70
     1
102
RTVSPropertyOp40
 70
     1
102
RTVSPropertyOp41
 70
     1
102
RTVSPropertyOp42
 70
     1
102
RTVSPropertyOp43
 70
     1
102
RTVSPropertyOp44
 70
     1
102
RTVSPropertyOp45
 70
     1
102
RTVSPropertyOp46
 70
     1
102
RTVSPropertyOp47
 70
     1
102
RTVSPropertyOp48
 70
     1
102
RTVSPropertyOp49
 70
     1
102
RTVSPropertyOp50
 70
     1
102
RTVSPropertyOp51
 70
     0
102
RTVSPropertyOp52
 70
     0
102
RTVSPropertyOp53
 70
     1
102
RTVSPropertyOp54
 70
     1
102
RTVSPropertyOp55
 70
     1
102
RTVSPropertyOp56
 70
     1
102
RTVSPropertyOp57
 70
     1
102
RTVSPropertyOp58
 70
     1
102
RTVSPropertyOp59
 70
     1
102
RTVSPropertyOp60
 70
     1
102
RTVSPropertyOp61
 70
     1
102
RTVSPropertyOp62
 70
     1
  0
XRECORD
  5
176BE
102
{ACAD_REACTORS
330
176BD
102
}
330
176BD
100
AcDbXrecord
280
     1
102
RTVSPost2010Prop28
280
     0
102
RTVSPost2010PropOp28
 70
     1
102
RTVSPost2010Prop29
280
     1
102
RTVSPost2010PropOp29
 70
     1
102
RTVSPost2010Prop30
280
     1
102
RTVSPost2010PropOp30
 70
     1
102
RTVSPost2010Prop31
280
     0
102
RTVSPost2010PropOp31
 70
     1
102
RTVSPost2010Prop32
280
     0
102
RTVSPost2010PropOp32
 70
     1
102
RTVSPost2010Prop33
280
     0
102
RTVSPost2010PropOp33
 70
     1
102
RTVSPost2010Prop34
280
     0
102
RTVSPost2010PropOp34
 70
     1
102
RTVSPost2010Prop35
280
     0
102
RTVSPost2010PropOp35
 70
     1
102
RTVSPost2010Prop36
280
     0
102
RTVSPost2010PropOp36
 70
     1
102
RTVSPost2010Prop37
 90
       50
102
RTVSPost2010PropOp37
 70
     1
102
RTVSPost2010Prop38
140
0.0
102
RTVSPost2010PropOp38
 70
     1
102
RTVSPost2010Prop39
140
1.0
102
RTVSPost2010PropOp39
 70
     1
102
RTVSPost2010Prop40
 90
        0
102
RTVSPost2010PropOp40
 70
     1
102
RTVSPost2010Prop41ColorIndex
 90
       18
102
RTVSPost2010Prop41ColorRGB
 90
        0
102
RTVSPost2010PropOp41
 70
     1
102
RTVSPost2010Prop42
 90
       50
102
RTVSPost2010PropOp42
 70
     1
102
RTVSPost2010Prop43
 90
        3
102
RTVSPost2010PropOp43
 70
     1
102
RTVSPost2010Prop44ColorIndex
 90
        5
102
RTVSPost2010Prop44ColorRGB
 90
      255
102
RTVSPost2010PropOp44
 70
     1
102
RTVSPost2010Prop45
280
     0
102
RTVSPost2010PropOp45
 70
     1
102
RTVSPost2010Prop46
 90
       50
102
RTVSPost2010PropOp46
 70
     1
102
RTVSPost2010Prop47
 90
       50
102
RTVSPost2010PropOp47
 70
     1
102
RTVSPost2010Prop48
 90
       50
102
RTVSPost2010PropOp48
 70
     1
102
RTVSPost2010Prop49
280
     0
102
RTVSPost2010PropOp49
 70
     1
102
RTVSPost2010Prop50
 90
       50
102
RTVSPost2010PropOp50
 70
     1
102
RTVSPost2010Prop51ColorIndex
 90
      256
102
RTVSPost2010Prop51ColorRGB
 90
-16777216
102
RTVSPost2010PropOp51
 70
     0
102
RTVSPost2010Prop52
140
1.0
102
RTVSPost2010PropOp52
 70
     0
102
RTVSPost2010Prop53
 90
        2
102
RTVSPost2010PropOp53
 70
     1
102
RTVSPost2010Prop54
  1
strokes_ogs.tif
102
RTVSPost2010PropOp54
 70
     1
102
RTVSPost2010Prop55
280
     0
102
RTVSPost2010PropOp55
 70
     1
102
RTVSPost2010Prop56
140
1.0
102
RTVSPost2010PropOp56
 70
     1
102
RTVSPost2010Prop57
140
1.0
102
RTVSPost2010PropOp57
 70
     1
102
RTVSPropertyOp0
 70
     1
102
RTVSPropertyOp1
 70
     1
102
RTVSPropertyOp2
 70
     1
102
RTVSPropertyOp3
 70
     1
102
RTVSPropertyOp4
 70
     1
102
RTVSPropertyOp5
 70
     1
102
RTVSPropertyOp6
 70
     1
102
RTVSPropertyOp7
 70
     1
102
RTVSPropertyOp8
 70
     1
102
RTVSPropertyOp9
 70
     1
102
RTVSPropertyOp10
 70
     1
102
RTVSPropertyOp11
 70
     1
102
RTVSPropertyOp12
 70
     1
102
RTVSPropertyOp13
 70
     1
102
RTVSPropertyOp14
 70
     1
102
RTVSPropertyOp15
 70
     1
102
RTVSPropertyOp16
 70
     1
102
RTVSPropertyOp17
 70
     1
102
RTVSPropertyOp18
 70
     1
102
RTVSPropertyOp19
 70
     1
102
RTVSPropertyOp20
 70
     1
102
RTVSPropertyOp21
 70
     1
102
RTVSPropertyOp22
 70
     1
102
RTVSPropertyOp23
 70
     1
102
RTVSPropertyOp24
 70
     1
102
RTVSPropertyOp25
 70
     1
102
RTVSPropertyOp26
 70
     1
102
RTVSPropertyOp27
 70
     1
102
RTVSPropertyOp28
 70
     1
102
RTVSPropertyOp29
 70
     1
102
RTVSPropertyOp30
 70
     1
102
RTVSPropertyOp31
 70
     1
102
RTVSPropertyOp32
 70
     1
102
RTVSPropertyOp33
 70
     1
102
RTVSPropertyOp34
 70
     1
102
RTVSPropertyOp35
 70
     1
102
RTVSPropertyOp36
 70
     1
102
RTVSPropertyOp37
 70
     1
102
RTVSPropertyOp38
 70
     1
102
RTVSPropertyOp39
 70
     1
102
RTVSPropertyOp40
 70
     1
102
RTVSPropertyOp41
 70
     1
102
RTVSPropertyOp42
 70
     1
102
RTVSPropertyOp43
 70
     1
102
RTVSPropertyOp44
 70
     1
102
RTVSPropertyOp45
 70
     1
102
RTVSPropertyOp46
 70
     1
102
RTVSPropertyOp47
 70
     1
102
RTVSPropertyOp48
 70
     1
102
RTVSPropertyOp49
 70
     1
102
RTVSPropertyOp50
 70
     1
102
RTVSPropertyOp51
 70
     0
102
RTVSPropertyOp52
 70
     0
102
RTVSPropertyOp53
 70
     1
102
RTVSPropertyOp54
 70
     1
102
RTVSPropertyOp55
 70
     1
102
RTVSPropertyOp56
 70
     1
102
RTVSPropertyOp57
 70
     1
102
RTVSPropertyOp58
 70
     1
102
RTVSPropertyOp59
 70
     1
102
RTVSPropertyOp60
 70
     1
102
RTVSPropertyOp61
 70
     1
102
RTVSPropertyOp62
 70
     1
  0
XRECORD
  5
176B6
102
{ACAD_REACTORS
330
176B5
102
}
330
176B5
100
AcDbXrecord
280
     1
102
RTVSPost2010Prop28
280
     0
102
RTVSPost2010PropOp28
 70
     1
102
RTVSPost2010Prop29
280
     1
102
RTVSPost2010PropOp29
 70
     1
102
RTVSPost2010Prop30
280
     1
102
RTVSPost2010PropOp30
 70
     1
102
RTVSPost2010Prop31
280
     0
102
RTVSPost2010PropOp31
 70
     1
102
RTVSPost2010Prop32
280
     0
102
RTVSPost2010PropOp32
 70
     1
102
RTVSPost2010Prop33
280
     0
102
RTVSPost2010PropOp33
 70
     1
102
RTVSPost2010Prop34
280
     0
102
RTVSPost2010PropOp34
 70
     1
102
RTVSPost2010Prop35
280
     0
102
RTVSPost2010PropOp35
 70
     1
102
RTVSPost2010Prop36
280
     0
102
RTVSPost2010PropOp36
 70
     1
102
RTVSPost2010Prop37
 90
       50
102
RTVSPost2010PropOp37
 70
     1
102
RTVSPost2010Prop38
140
0.0
102
RTVSPost2010PropOp38
 70
     1
102
RTVSPost2010Prop39
140
1.0
102
RTVSPost2010PropOp39
 70
     1
102
RTVSPost2010Prop40
 90
        0
102
RTVSPost2010PropOp40
 70
     1
102
RTVSPost2010Prop41ColorIndex
 90
       18
102
RTVSPost2010Prop41ColorRGB
 90
        0
102
RTVSPost2010PropOp41
 70
     1
102
RTVSPost2010Prop42
 90
       50
102
RTVSPost2010PropOp42
 70
     1
102
RTVSPost2010Prop43
 90
        3
102
RTVSPost2010PropOp43
 70
     1
102
RTVSPost2010Prop44ColorIndex
 90
        5
102
RTVSPost2010Prop44ColorRGB
 90
      255
102
RTVSPost2010PropOp44
 70
     1
102
RTVSPost2010Prop45
280
     0
102
RTVSPost2010PropOp45
 70
     1
102
RTVSPost2010Prop46
 90
       50
102
RTVSPost2010PropOp46
 70
     1
102
RTVSPost2010Prop47
 90
       50
102
RTVSPost2010PropOp47
 70
     1
102
RTVSPost2010Prop48
 90
       50
102
RTVSPost2010PropOp48
 70
     1
102
RTVSPost2010Prop49
280
     0
102
RTVSPost2010PropOp49
 70
     1
102
RTVSPost2010Prop50
 90
       50
102
RTVSPost2010PropOp50
 70
     1
102
RTVSPost2010Prop51ColorIndex
 90
      256
102
RTVSPost2010Prop51ColorRGB
 90
-16777216
102
RTVSPost2010PropOp51
 70
     0
102
RTVSPost2010Prop52
140
1.0
102
RTVSPost2010PropOp52
 70
     0
102
RTVSPost2010Prop53
 90
        2
102
RTVSPost2010PropOp53
 70
     1
102
RTVSPost2010Prop54
  1
strokes_ogs.tif
102
RTVSPost2010PropOp54
 70
     1
102
RTVSPost2010Prop55
280
     0
102
RTVSPost2010PropOp55
 70
     1
102
RTVSPost2010Prop56
140
1.0
102
RTVSPost2010PropOp56
 70
     1
102
RTVSPost2010Prop57
140
1.0
102
RTVSPost2010PropOp57
 70
     1
102
RTVSPropertyOp0
 70
     0
102
RTVSPropertyOp1
 70
     0
102
RTVSPropertyOp2
 70
     0
102
RTVSPropertyOp3
 70
     0
102
RTVSPropertyOp4
 70
     0
102
RTVSPropertyOp5
 70
     0
102
RTVSPropertyOp6
 70
     0
102
RTVSPropertyOp7
 70
     0
102
RTVSPropertyOp8
 70
     0
102
RTVSPropertyOp9
 70
     0
102
RTVSPropertyOp10
 70
     0
102
RTVSPropertyOp11
 70
     0
102
RTVSPropertyOp12
 70
     0
102
RTVSPropertyOp13
 70
     0
102
RTVSPropertyOp14
 70
     2
102
RTVSPropertyOp15
 70
     0
102
RTVSPropertyOp16
 70
     0
102
RTVSPropertyOp17
 70
     0
102
RTVSPropertyOp18
 70
     0
102
RTVSPropertyOp19
 70
     0
102
RTVSPropertyOp20
 70
     0
102
RTVSPropertyOp21
 70
     0
102
RTVSPropertyOp22
 70
     0
102
RTVSPropertyOp23
 70
     0
102
RTVSPropertyOp24
 70
     0
102
RTVSPropertyOp25
 70
     0
102
RTVSPropertyOp26
 70
     0
102
RTVSPropertyOp27
 70
     0
102
RTVSPropertyOp28
 70
     1
102
RTVSPropertyOp29
 70
     1
102
RTVSPropertyOp30
 70
     1
102
RTVSPropertyOp31
 70
     1
102
RTVSPropertyOp32
 70
     1
102
RTVSPropertyOp33
 70
     1
102
RTVSPropertyOp34
 70
     1
102
RTVSPropertyOp35
 70
     1
102
RTVSPropertyOp36
 70
     1
102
RTVSPropertyOp37
 70
     1
102
RTVSPropertyOp38
 70
     1
102
RTVSPropertyOp39
 70
     1
102
RTVSPropertyOp40
 70
     1
102
RTVSPropertyOp41
 70
     1
102
RTVSPropertyOp42
 70
     1
102
RTVSPropertyOp43
 70
     1
102
RTVSPropertyOp44
 70
     1
102
RTVSPropertyOp45
 70
     1
102
RTVSPropertyOp46
 70
     1
102
RTVSPropertyOp47
 70
     1
102
RTVSPropertyOp48
 70
     1
102
RTVSPropertyOp49
 70
     1
102
RTVSPropertyOp50
 70
     1
102
RTVSPropertyOp51
 70
     0
102
RTVSPropertyOp52
 70
     0
102
RTVSPropertyOp53
 70
     1
102
RTVSPropertyOp54
 70
     1
102
RTVSPropertyOp55
 70
     1
102
RTVSPropertyOp56
 70
     1
102
RTVSPropertyOp57
 70
     1
102
RTVSPropertyOp58
 70
     1
102
RTVSPropertyOp59
 70
     1
102
RTVSPropertyOp60
 70
     1
102
RTVSPropertyOp61
 70
     1
102
RTVSPropertyOp62
 70
     1
  0
XRECORD
  5
176AA
102
{ACAD_REACTORS
330
176A9
102
}
330
176A9
100
AcDbXrecord
280
     1
102
RTVSPost2010Prop28
280
     0
102
RTVSPost2010PropOp28
 70
     1
102
RTVSPost2010Prop29
280
     1
102
RTVSPost2010PropOp29
 70
     1
102
RTVSPost2010Prop30
280
     1
102
RTVSPost2010PropOp30
 70
     1
102
RTVSPost2010Prop31
280
     0
102
RTVSPost2010PropOp31
 70
     1
102
RTVSPost2010Prop32
280
     0
102
RTVSPost2010PropOp32
 70
     1
102
RTVSPost2010Prop33
280
     0
102
RTVSPost2010PropOp33
 70
     1
102
RTVSPost2010Prop34
280
     0
102
RTVSPost2010PropOp34
 70
     1
102
RTVSPost2010Prop35
280
     0
102
RTVSPost2010PropOp35
 70
     1
102
RTVSPost2010Prop36
280
     0
102
RTVSPost2010PropOp36
 70
     1
102
RTVSPost2010Prop37
 90
       50
102
RTVSPost2010PropOp37
 70
     1
102
RTVSPost2010Prop38
140
0.0
102
RTVSPost2010PropOp38
 70
     1
102
RTVSPost2010Prop39
140
1.0
102
RTVSPost2010PropOp39
 70
     1
102
RTVSPost2010Prop40
 90
        0
102
RTVSPost2010PropOp40
 70
     1
102
RTVSPost2010Prop41ColorIndex
 90
       18
102
RTVSPost2010Prop41ColorRGB
 90
        0
102
RTVSPost2010PropOp41
 70
     1
102
RTVSPost2010Prop42
 90
       50
102
RTVSPost2010PropOp42
 70
     1
102
RTVSPost2010Prop43
 90
        3
102
RTVSPost2010PropOp43
 70
     1
102
RTVSPost2010Prop44ColorIndex
 90
        5
102
RTVSPost2010Prop44ColorRGB
 90
      255
102
RTVSPost2010PropOp44
 70
     1
102
RTVSPost2010Prop45
280
     0
102
RTVSPost2010PropOp45
 70
     1
102
RTVSPost2010Prop46
 90
       50
102
RTVSPost2010PropOp46
 70
     1
102
RTVSPost2010Prop47
 90
       50
102
RTVSPost2010PropOp47
 70
     1
102
RTVSPost2010Prop48
 90
       50
102
RTVSPost2010PropOp48
 70
     1
102
RTVSPost2010Prop49
280
     0
102
RTVSPost2010PropOp49
 70
     1
102
RTVSPost2010Prop50
 90
       50
102
RTVSPost2010PropOp50
 70
     1
102
RTVSPost2010Prop51ColorIndex
 90
      256
102
RTVSPost2010Prop51ColorRGB
 90
-16777216
102
RTVSPost2010PropOp51
 70
     0
102
RTVSPost2010Prop52
140
1.0
102
RTVSPost2010PropOp52
 70
     0
102
RTVSPost2010Prop53
 90
        2
102
RTVSPost2010PropOp53
 70
     1
102
RTVSPost2010Prop54
  1
strokes_ogs.tif
102
RTVSPost2010PropOp54
 70
     1
102
RTVSPost2010Prop55
280
     0
102
RTVSPost2010PropOp55
 70
     1
102
RTVSPost2010Prop56
140
1.0
102
RTVSPost2010PropOp56
 70
     1
102
RTVSPost2010Prop57
140
1.0
102
RTVSPost2010PropOp57
 70
     1
102
RTVSPropertyOp0
 70
     1
102
RTVSPropertyOp1
 70
     1
102
RTVSPropertyOp2
 70
     1
102
RTVSPropertyOp3
 70
     1
102
RTVSPropertyOp4
 70
     1
102
RTVSPropertyOp5
 70
     1
102
RTVSPropertyOp6
 70
     1
102
RTVSPropertyOp7
 70
     1
102
RTVSPropertyOp8
 70
     1
102
RTVSPropertyOp9
 70
     1
102
RTVSPropertyOp10
 70
     1
102
RTVSPropertyOp11
 70
     1
102
RTVSPropertyOp12
 70
     1
102
RTVSPropertyOp13
 70
     1
102
RTVSPropertyOp14
 70
     1
102
RTVSPropertyOp15
 70
     1
102
RTVSPropertyOp16
 70
     1
102
RTVSPropertyOp17
 70
     1
102
RTVSPropertyOp18
 70
     1
102
RTVSPropertyOp19
 70
     1
102
RTVSPropertyOp20
 70
     1
102
RTVSPropertyOp21
 70
     1
102
RTVSPropertyOp22
 70
     1
102
RTVSPropertyOp23
 70
     1
102
RTVSPropertyOp24
 70
     1
102
RTVSPropertyOp25
 70
     1
102
RTVSPropertyOp26
 70
     1
102
RTVSPropertyOp27
 70
     1
102
RTVSPropertyOp28
 70
     1
102
RTVSPropertyOp29
 70
     1
102
RTVSPropertyOp30
 70
     1
102
RTVSPropertyOp31
 70
     1
102
RTVSPropertyOp32
 70
     1
102
RTVSPropertyOp33
 70
     1
102
RTVSPropertyOp34
 70
     1
102
RTVSPropertyOp35
 70
     1
102
RTVSPropertyOp36
 70
     1
102
RTVSPropertyOp37
 70
     1
102
RTVSPropertyOp38
 70
     1
102
RTVSPropertyOp39
 70
     1
102
RTVSPropertyOp40
 70
     1
102
RTVSPropertyOp41
 70
     1
102
RTVSPropertyOp42
 70
     1
102
RTVSPropertyOp43
 70
     1
102
RTVSPropertyOp44
 70
     1
102
RTVSPropertyOp45
 70
     1
102
RTVSPropertyOp46
 70
     1
102
RTVSPropertyOp47
 70
     1
102
RTVSPropertyOp48
 70
     1
102
RTVSPropertyOp49
 70
     1
102
RTVSPropertyOp50
 70
     1
102
RTVSPropertyOp51
 70
     0
102
RTVSPropertyOp52
 70
     0
102
RTVSPropertyOp53
 70
     1
102
RTVSPropertyOp54
 70
     1
102
RTVSPropertyOp55
 70
     1
102
RTVSPropertyOp56
 70
     1
102
RTVSPropertyOp57
 70
     1
102
RTVSPropertyOp58
 70
     1
102
RTVSPropertyOp59
 70
     1
102
RTVSPropertyOp60
 70
     1
102
RTVSPropertyOp61
 70
     1
102
RTVSPropertyOp62
 70
     1
  0
XRECORD
  5
176B8
102
{ACAD_REACTORS
330
176B7
102
}
330
176B7
100
AcDbXrecord
280
     1
102
RTVSPost2010Prop28
280
     0
102
RTVSPost2010PropOp28
 70
     1
102
RTVSPost2010Prop29
280
     1
102
RTVSPost2010PropOp29
 70
     1
102
RTVSPost2010Prop30
280
     1
102
RTVSPost2010PropOp30
 70
     1
102
RTVSPost2010Prop31
280
     0
102
RTVSPost2010PropOp31
 70
     1
102
RTVSPost2010Prop32
280
     0
102
RTVSPost2010PropOp32
 70
     1
102
RTVSPost2010Prop33
280
     0
102
RTVSPost2010PropOp33
 70
     1
102
RTVSPost2010Prop34
280
     0
102
RTVSPost2010PropOp34
 70
     1
102
RTVSPost2010Prop35
280
     0
102
RTVSPost2010PropOp35
 70
     1
102
RTVSPost2010Prop36
280
     0
102
RTVSPost2010PropOp36
 70
     1
102
RTVSPost2010Prop37
 90
       50
102
RTVSPost2010PropOp37
 70
     1
102
RTVSPost2010Prop38
140
0.0
102
RTVSPost2010PropOp38
 70
     1
102
RTVSPost2010Prop39
140
1.0
102
RTVSPost2010PropOp39
 70
     1
102
RTVSPost2010Prop40
 90
        0
102
RTVSPost2010PropOp40
 70
     1
102
RTVSPost2010Prop41ColorIndex
 90
       18
102
RTVSPost2010Prop41ColorRGB
 90
        0
102
RTVSPost2010PropOp41
 70
     1
102
RTVSPost2010Prop42
 90
       50
102
RTVSPost2010PropOp42
 70
     1
102
RTVSPost2010Prop43
 90
        3
102
RTVSPost2010PropOp43
 70
     1
102
RTVSPost2010Prop44ColorIndex
 90
        5
102
RTVSPost2010Prop44ColorRGB
 90
      255
102
RTVSPost2010PropOp44
 70
     1
102
RTVSPost2010Prop45
280
     0
102
RTVSPost2010PropOp45
 70
     1
102
RTVSPost2010Prop46
 90
       50
102
RTVSPost2010PropOp46
 70
     1
102
RTVSPost2010Prop47
 90
       50
102
RTVSPost2010PropOp47
 70
     1
102
RTVSPost2010Prop48
 90
       50
102
RTVSPost2010PropOp48
 70
     1
102
RTVSPost2010Prop49
280
     0
102
RTVSPost2010PropOp49
 70
     1
102
RTVSPost2010Prop50
 90
       50
102
RTVSPost2010PropOp50
 70
     1
102
RTVSPost2010Prop51ColorIndex
 90
      256
102
RTVSPost2010Prop51ColorRGB
 90
-16777216
102
RTVSPost2010PropOp51
 70
     0
102
RTVSPost2010Prop52
140
1.0
102
RTVSPost2010PropOp52
 70
     0
102
RTVSPost2010Prop53
 90
        2
102
RTVSPost2010PropOp53
 70
     1
102
RTVSPost2010Prop54
  1
strokes_ogs.tif
102
RTVSPost2010PropOp54
 70
     1
102
RTVSPost2010Prop55
280
     0
102
RTVSPost2010PropOp55
 70
     1
102
RTVSPost2010Prop56
140
1.0
102
RTVSPost2010PropOp56
 70
     1
102
RTVSPost2010Prop57
140
1.0
102
RTVSPost2010PropOp57
 70
     1
102
RTVSPropertyOp0
 70
     0
102
RTVSPropertyOp1
 70
     0
102
RTVSPropertyOp2
 70
     0
102
RTVSPropertyOp3
 70
     0
102
RTVSPropertyOp4
 70
     0
102
RTVSPropertyOp5
 70
     0
102
RTVSPropertyOp6
 70
     0
102
RTVSPropertyOp7
 70
     0
102
RTVSPropertyOp8
 70
     0
102
RTVSPropertyOp9
 70
     0
102
RTVSPropertyOp10
 70
     0
102
RTVSPropertyOp11
 70
     0
102
RTVSPropertyOp12
 70
     0
102
RTVSPropertyOp13
 70
     0
102
RTVSPropertyOp14
 70
     2
102
RTVSPropertyOp15
 70
     0
102
RTVSPropertyOp16
 70
     0
102
RTVSPropertyOp17
 70
     0
102
RTVSPropertyOp18
 70
     0
102
RTVSPropertyOp19
 70
     0
102
RTVSPropertyOp20
 70
     0
102
RTVSPropertyOp21
 70
     0
102
RTVSPropertyOp22
 70
     0
102
RTVSPropertyOp23
 70
     0
102
RTVSPropertyOp24
 70
     0
102
RTVSPropertyOp25
 70
     0
102
RTVSPropertyOp26
 70
     0
102
RTVSPropertyOp27
 70
     0
102
RTVSPropertyOp28
 70
     1
102
RTVSPropertyOp29
 70
     1
102
RTVSPropertyOp30
 70
     1
102
RTVSPropertyOp31
 70
     1
102
RTVSPropertyOp32
 70
     1
102
RTVSPropertyOp33
 70
     1
102
RTVSPropertyOp34
 70
     1
102
RTVSPropertyOp35
 70
     1
102
RTVSPropertyOp36
 70
     1
102
RTVSPropertyOp37
 70
     1
102
RTVSPropertyOp38
 70
     1
102
RTVSPropertyOp39
 70
     1
102
RTVSPropertyOp40
 70
     1
102
RTVSPropertyOp41
 70
     1
102
RTVSPropertyOp42
 70
     1
102
RTVSPropertyOp43
 70
     1
102
RTVSPropertyOp44
 70
     1
102
RTVSPropertyOp45
 70
     1
102
RTVSPropertyOp46
 70
     1
102
RTVSPropertyOp47
 70
     1
102
RTVSPropertyOp48
 70
     1
102
RTVSPropertyOp49
 70
     1
102
RTVSPropertyOp50
 70
     1
102
RTVSPropertyOp51
 70
     0
102
RTVSPropertyOp52
 70
     0
102
RTVSPropertyOp53
 70
     1
102
RTVSPropertyOp54
 70
     1
102
RTVSPropertyOp55
 70
     1
102
RTVSPropertyOp56
 70
     1
102
RTVSPropertyOp57
 70
     1
102
RTVSPropertyOp58
 70
     1
102
RTVSPropertyOp59
 70
     1
102
RTVSPropertyOp60
 70
     1
102
RTVSPropertyOp61
 70
     1
102
RTVSPropertyOp62
 70
     1
  0
XRECORD
  5
176A2
102
{ACAD_REACTORS
330
176A1
102
}
330
176A1
100
AcDbXrecord
280
     1
102
RTVSPost2010Prop28
280
     0
102
RTVSPost2010PropOp28
 70
     1
102
RTVSPost2010Prop29
280
     1
102
RTVSPost2010PropOp29
 70
     1
102
RTVSPost2010Prop30
280
     1
102
RTVSPost2010PropOp30
 70
     1
102
RTVSPost2010Prop31
280
     0
102
RTVSPost2010PropOp31
 70
     1
102
RTVSPost2010Prop32
280
     0
102
RTVSPost2010PropOp32
 70
     1
102
RTVSPost2010Prop33
280
     0
102
RTVSPost2010PropOp33
 70
     1
102
RTVSPost2010Prop34
280
     0
102
RTVSPost2010PropOp34
 70
     1
102
RTVSPost2010Prop35
280
     0
102
RTVSPost2010PropOp35
 70
     1
102
RTVSPost2010Prop36
280
     0
102
RTVSPost2010PropOp36
 70
     1
102
RTVSPost2010Prop37
 90
       50
102
RTVSPost2010PropOp37
 70
     1
102
RTVSPost2010Prop38
140
0.0
102
RTVSPost2010PropOp38
 70
     1
102
RTVSPost2010Prop39
140
1.0
102
RTVSPost2010PropOp39
 70
     1
102
RTVSPost2010Prop40
 90
        0
102
RTVSPost2010PropOp40
 70
     1
102
RTVSPost2010Prop41ColorIndex
 90
       18
102
RTVSPost2010Prop41ColorRGB
 90
        0
102
RTVSPost2010PropOp41
 70
     1
102
RTVSPost2010Prop42
 90
       50
102
RTVSPost2010PropOp42
 70
     1
102
RTVSPost2010Prop43
 90
        3
102
RTVSPost2010PropOp43
 70
     1
102
RTVSPost2010Prop44ColorIndex
 90
        5
102
RTVSPost2010Prop44ColorRGB
 90
      255
102
RTVSPost2010PropOp44
 70
     1
102
RTVSPost2010Prop45
280
     0
102
RTVSPost2010PropOp45
 70
     1
102
RTVSPost2010Prop46
 90
       50
102
RTVSPost2010PropOp46
 70
     1
102
RTVSPost2010Prop47
 90
       50
102
RTVSPost2010PropOp47
 70
     1
102
RTVSPost2010Prop48
 90
       50
102
RTVSPost2010PropOp48
 70
     1
102
RTVSPost2010Prop49
280
     0
102
RTVSPost2010PropOp49
 70
     1
102
RTVSPost2010Prop50
 90
       50
102
RTVSPost2010PropOp50
 70
     1
102
RTVSPost2010Prop51ColorIndex
 90
      256
102
RTVSPost2010Prop51ColorRGB
 90
-16777216
102
RTVSPost2010PropOp51
 70
     0
102
RTVSPost2010Prop52
140
1.0
102
RTVSPost2010PropOp52
 70
     0
102
RTVSPost2010Prop53
 90
        2
102
RTVSPost2010PropOp53
 70
     1
102
RTVSPost2010Prop54
  1
strokes_ogs.tif
102
RTVSPost2010PropOp54
 70
     1
102
RTVSPost2010Prop55
280
     0
102
RTVSPost2010PropOp55
 70
     1
102
RTVSPost2010Prop56
140
1.0
102
RTVSPost2010PropOp56
 70
     1
102
RTVSPost2010Prop57
140
1.0
102
RTVSPost2010PropOp57
 70
     1
102
RTVSPropertyOp0
 70
     1
102
RTVSPropertyOp1
 70
     1
102
RTVSPropertyOp2
 70
     1
102
RTVSPropertyOp3
 70
     1
102
RTVSPropertyOp4
 70
     1
102
RTVSPropertyOp5
 70
     1
102
RTVSPropertyOp6
 70
     1
102
RTVSPropertyOp7
 70
     1
102
RTVSPropertyOp8
 70
     1
102
RTVSPropertyOp9
 70
     1
102
RTVSPropertyOp10
 70
     1
102
RTVSPropertyOp11
 70
     1
102
RTVSPropertyOp12
 70
     1
102
RTVSPropertyOp13
 70
     1
102
RTVSPropertyOp14
 70
     1
102
RTVSPropertyOp15
 70
     1
102
RTVSPropertyOp16
 70
     1
102
RTVSPropertyOp17
 70
     1
102
RTVSPropertyOp18
 70
     1
102
RTVSPropertyOp19
 70
     1
102
RTVSPropertyOp20
 70
     1
102
RTVSPropertyOp21
 70
     1
102
RTVSPropertyOp22
 70
     1
102
RTVSPropertyOp23
 70
     1
102
RTVSPropertyOp24
 70
     1
102
RTVSPropertyOp25
 70
     1
102
RTVSPropertyOp26
 70
     1
102
RTVSPropertyOp27
 70
     1
102
RTVSPropertyOp28
 70
     1
102
RTVSPropertyOp29
 70
     1
102
RTVSPropertyOp30
 70
     1
102
RTVSPropertyOp31
 70
     1
102
RTVSPropertyOp32
 70
     1
102
RTVSPropertyOp33
 70
     1
102
RTVSPropertyOp34
 70
     1
102
RTVSPropertyOp35
 70
     1
102
RTVSPropertyOp36
 70
     1
102
RTVSPropertyOp37
 70
     1
102
RTVSPropertyOp38
 70
     1
102
RTVSPropertyOp39
 70
     1
102
RTVSPropertyOp40
 70
     1
102
RTVSPropertyOp41
 70
     1
102
RTVSPropertyOp42
 70
     1
102
RTVSPropertyOp43
 70
     1
102
RTVSPropertyOp44
 70
     1
102
RTVSPropertyOp45
 70
     1
102
RTVSPropertyOp46
 70
     1
102
RTVSPropertyOp47
 70
     1
102
RTVSPropertyOp48
 70
     1
102
RTVSPropertyOp49
 70
     1
102
RTVSPropertyOp50
 70
     1
102
RTVSPropertyOp51
 70
     0
102
RTVSPropertyOp52
 70
     0
102
RTVSPropertyOp53
 70
     1
102
RTVSPropertyOp54
 70
     1
102
RTVSPropertyOp55
 70
     1
102
RTVSPropertyOp56
 70
     1
102
RTVSPropertyOp57
 70
     1
102
RTVSPropertyOp58
 70
     1
102
RTVSPropertyOp59
 70
     1
102
RTVSPropertyOp60
 70
     1
102
RTVSPropertyOp61
 70
     1
102
RTVSPropertyOp62
 70
     1
  0
XRECORD
  5
176C8
102
{ACAD_REACTORS
330
176C7
102
}
330
176C7
100
AcDbXrecord
280
     1
102
RTVSPost2010Prop28
280
     0
102
RTVSPost2010PropOp28
 70
     1
102
RTVSPost2010Prop29
280
     1
102
RTVSPost2010PropOp29
 70
     1
102
RTVSPost2010Prop30
280
     1
102
RTVSPost2010PropOp30
 70
     1
102
RTVSPost2010Prop31
280
     0
102
RTVSPost2010PropOp31
 70
     1
102
RTVSPost2010Prop32
280
     0
102
RTVSPost2010PropOp32
 70
     1
102
RTVSPost2010Prop33
280
     0
102
RTVSPost2010PropOp33
 70
     1
102
RTVSPost2010Prop34
280
     0
102
RTVSPost2010PropOp34
 70
     1
102
RTVSPost2010Prop35
280
     0
102
RTVSPost2010PropOp35
 70
     1
102
RTVSPost2010Prop36
280
     0
102
RTVSPost2010PropOp36
 70
     1
102
RTVSPost2010Prop37
 90
       50
102
RTVSPost2010PropOp37
 70
     1
102
RTVSPost2010Prop38
140
0.0
102
RTVSPost2010PropOp38
 70
     1
102
RTVSPost2010Prop39
140
1.0
102
RTVSPost2010PropOp39
 70
     1
102
RTVSPost2010Prop40
 90
        0
102
RTVSPost2010PropOp40
 70
     1
102
RTVSPost2010Prop41ColorIndex
 90
       18
102
RTVSPost2010Prop41ColorRGB
 90
        0
102
RTVSPost2010PropOp41
 70
     1
102
RTVSPost2010Prop42
 90
       50
102
RTVSPost2010PropOp42
 70
     1
102
RTVSPost2010Prop43
 90
        3
102
RTVSPost2010PropOp43
 70
     1
102
RTVSPost2010Prop44ColorIndex
 90
        5
102
RTVSPost2010Prop44ColorRGB
 90
      255
102
RTVSPost2010PropOp44
 70
     1
102
RTVSPost2010Prop45
280
     0
102
RTVSPost2010PropOp45
 70
     1
102
RTVSPost2010Prop46
 90
       50
102
RTVSPost2010PropOp46
 70
     1
102
RTVSPost2010Prop47
 90
       50
102
RTVSPost2010PropOp47
 70
     1
102
RTVSPost2010Prop48
 90
       50
102
RTVSPost2010PropOp48
 70
     1
102
RTVSPost2010Prop49
280
     0
102
RTVSPost2010PropOp49
 70
     1
102
RTVSPost2010Prop50
 90
       50
102
RTVSPost2010PropOp50
 70
     1
102
RTVSPost2010Prop51ColorIndex
 90
      256
102
RTVSPost2010Prop51ColorRGB
 90
-16777216
102
RTVSPost2010PropOp51
 70
     0
102
RTVSPost2010Prop52
140
1.0
102
RTVSPost2010PropOp52
 70
     0
102
RTVSPost2010Prop53
 90
        2
102
RTVSPost2010PropOp53
 70
     1
102
RTVSPost2010Prop54
  1
strokes_ogs.tif
102
RTVSPost2010PropOp54
 70
     1
102
RTVSPost2010Prop55
280
     0
102
RTVSPost2010PropOp55
 70
     1
102
RTVSPost2010Prop56
140
1.0
102
RTVSPost2010PropOp56
 70
     1
102
RTVSPost2010Prop57
140
1.0
102
RTVSPost2010PropOp57
 70
     1
102
RTVSPropertyOp0
 70
     1
102
RTVSPropertyOp1
 70
     1
102
RTVSPropertyOp2
 70
     1
102
RTVSPropertyOp3
 70
     1
102
RTVSPropertyOp4
 70
     1
102
RTVSPropertyOp5
 70
     1
102
RTVSPropertyOp6
 70
     1
102
RTVSPropertyOp7
 70
     1
102
RTVSPropertyOp8
 70
     1
102
RTVSPropertyOp9
 70
     1
102
RTVSPropertyOp10
 70
     1
102
RTVSPropertyOp11
 70
     1
102
RTVSPropertyOp12
 70
     1
102
RTVSPropertyOp13
 70
     1
102
RTVSPropertyOp14
 70
     1
102
RTVSPropertyOp15
 70
     1
102
RTVSPropertyOp16
 70
     1
102
RTVSPropertyOp17
 70
     1
102
RTVSPropertyOp18
 70
     1
102
RTVSPropertyOp19
 70
     1
102
RTVSPropertyOp20
 70
     1
102
RTVSPropertyOp21
 70
     1
102
RTVSPropertyOp22
 70
     1
102
RTVSPropertyOp23
 70
     1
102
RTVSPropertyOp24
 70
     1
102
RTVSPropertyOp25
 70
     1
102
RTVSPropertyOp26
 70
     1
102
RTVSPropertyOp27
 70
     1
102
RTVSPropertyOp28
 70
     1
102
RTVSPropertyOp29
 70
     1
102
RTVSPropertyOp30
 70
     1
102
RTVSPropertyOp31
 70
     1
102
RTVSPropertyOp32
 70
     1
102
RTVSPropertyOp33
 70
     1
102
RTVSPropertyOp34
 70
     1
102
RTVSPropertyOp35
 70
     1
102
RTVSPropertyOp36
 70
     1
102
RTVSPropertyOp37
 70
     1
102
RTVSPropertyOp38
 70
     1
102
RTVSPropertyOp39
 70
     1
102
RTVSPropertyOp40
 70
     1
102
RTVSPropertyOp41
 70
     1
102
RTVSPropertyOp42
 70
     1
102
RTVSPropertyOp43
 70
     1
102
RTVSPropertyOp44
 70
     1
102
RTVSPropertyOp45
 70
     1
102
RTVSPropertyOp46
 70
     1
102
RTVSPropertyOp47
 70
     1
102
RTVSPropertyOp48
 70
     1
102
RTVSPropertyOp49
 70
     1
102
RTVSPropertyOp50
 70
     1
102
RTVSPropertyOp51
 70
     0
102
RTVSPropertyOp52
 70
     0
102
RTVSPropertyOp53
 70
     1
102
RTVSPropertyOp54
 70
     1
102
RTVSPropertyOp55
 70
     1
102
RTVSPropertyOp56
 70
     1
102
RTVSPropertyOp57
 70
     1
102
RTVSPropertyOp58
 70
     1
102
RTVSPropertyOp59
 70
     1
102
RTVSPropertyOp60
 70
     1
102
RTVSPropertyOp61
 70
     1
102
RTVSPropertyOp62
 70
     1
  0
XRECORD
  5
176C6
102
{ACAD_REACTORS
330
176C5
102
}
330
176C5
100
AcDbXrecord
280
     1
102
RTVSPost2010Prop28
280
     0
102
RTVSPost2010PropOp28
 70
     1
102
RTVSPost2010Prop29
280
     1
102
RTVSPost2010PropOp29
 70
     1
102
RTVSPost2010Prop30
280
     1
102
RTVSPost2010PropOp30
 70
     1
102
RTVSPost2010Prop31
280
     0
102
RTVSPost2010PropOp31
 70
     1
102
RTVSPost2010Prop32
280
     0
102
RTVSPost2010PropOp32
 70
     1
102
RTVSPost2010Prop33
280
     0
102
RTVSPost2010PropOp33
 70
     1
102
RTVSPost2010Prop34
280
     0
102
RTVSPost2010PropOp34
 70
     1
102
RTVSPost2010Prop35
280
     0
102
RTVSPost2010PropOp35
 70
     1
102
RTVSPost2010Prop36
280
     0
102
RTVSPost2010PropOp36
 70
     1
102
RTVSPost2010Prop37
 90
       50
102
RTVSPost2010PropOp37
 70
     1
102
RTVSPost2010Prop38
140
0.0
102
RTVSPost2010PropOp38
 70
     1
102
RTVSPost2010Prop39
140
1.0
102
RTVSPost2010PropOp39
 70
     1
102
RTVSPost2010Prop40
 90
        0
102
RTVSPost2010PropOp40
 70
     1
102
RTVSPost2010Prop41ColorIndex
 90
       18
102
RTVSPost2010Prop41ColorRGB
 90
        0
102
RTVSPost2010PropOp41
 70
     1
102
RTVSPost2010Prop42
 90
       50
102
RTVSPost2010PropOp42
 70
     1
102
RTVSPost2010Prop43
 90
        3
102
RTVSPost2010PropOp43
 70
     1
102
RTVSPost2010Prop44ColorIndex
 90
        5
102
RTVSPost2010Prop44ColorRGB
 90
      255
102
RTVSPost2010PropOp44
 70
     1
102
RTVSPost2010Prop45
280
     0
102
RTVSPost2010PropOp45
 70
     1
102
RTVSPost2010Prop46
 90
       50
102
RTVSPost2010PropOp46
 70
     1
102
RTVSPost2010Prop47
 90
       50
102
RTVSPost2010PropOp47
 70
     1
102
RTVSPost2010Prop48
 90
       50
102
RTVSPost2010PropOp48
 70
     1
102
RTVSPost2010Prop49
280
     0
102
RTVSPost2010PropOp49
 70
     1
102
RTVSPost2010Prop50
 90
       50
102
RTVSPost2010PropOp50
 70
     1
102
RTVSPost2010Prop51ColorIndex
 90
      256
102
RTVSPost2010Prop51ColorRGB
 90
-16777216
102
RTVSPost2010PropOp51
 70
     0
102
RTVSPost2010Prop52
140
1.0
102
RTVSPost2010PropOp52
 70
     0
102
RTVSPost2010Prop53
 90
        2
102
RTVSPost2010PropOp53
 70
     1
102
RTVSPost2010Prop54
  1
strokes_ogs.tif
102
RTVSPost2010PropOp54
 70
     1
102
RTVSPost2010Prop55
280
     0
102
RTVSPost2010PropOp55
 70
     1
102
RTVSPost2010Prop56
140
1.0
102
RTVSPost2010PropOp56
 70
     1
102
RTVSPost2010Prop57
140
1.0
102
RTVSPost2010PropOp57
 70
     1
102
RTVSPropertyOp0
 70
     1
102
RTVSPropertyOp1
 70
     1
102
RTVSPropertyOp2
 70
     1
102
RTVSPropertyOp3
 70
     1
102
RTVSPropertyOp4
 70
     1
102
RTVSPropertyOp5
 70
     1
102
RTVSPropertyOp6
 70
     1
102
RTVSPropertyOp7
 70
     1
102
RTVSPropertyOp8
 70
     1
102
RTVSPropertyOp9
 70
     1
102
RTVSPropertyOp10
 70
     1
102
RTVSPropertyOp11
 70
     1
102
RTVSPropertyOp12
 70
     1
102
RTVSPropertyOp13
 70
     1
102
RTVSPropertyOp14
 70
     1
102
RTVSPropertyOp15
 70
     1
102
RTVSPropertyOp16
 70
     1
102
RTVSPropertyOp17
 70
     1
102
RTVSPropertyOp18
 70
     1
102
RTVSPropertyOp19
 70
     1
102
RTVSPropertyOp20
 70
     1
102
RTVSPropertyOp21
 70
     1
102
RTVSPropertyOp22
 70
     1
102
RTVSPropertyOp23
 70
     1
102
RTVSPropertyOp24
 70
     1
102
RTVSPropertyOp25
 70
     1
102
RTVSPropertyOp26
 70
     1
102
RTVSPropertyOp27
 70
     1
102
RTVSPropertyOp28
 70
     1
102
RTVSPropertyOp29
 70
     1
102
RTVSPropertyOp30
 70
     1
102
RTVSPropertyOp31
 70
     1
102
RTVSPropertyOp32
 70
     1
102
RTVSPropertyOp33
 70
     1
102
RTVSPropertyOp34
 70
     1
102
RTVSPropertyOp35
 70
     1
102
RTVSPropertyOp36
 70
     1
102
RTVSPropertyOp37
 70
     1
102
RTVSPropertyOp38
 70
     1
102
RTVSPropertyOp39
 70
     1
102
RTVSPropertyOp40
 70
     1
102
RTVSPropertyOp41
 70
     1
102
RTVSPropertyOp42
 70
     1
102
RTVSPropertyOp43
 70
     1
102
RTVSPropertyOp44
 70
     1
102
RTVSPropertyOp45
 70
     1
102
RTVSPropertyOp46
 70
     1
102
RTVSPropertyOp47
 70
     1
102
RTVSPropertyOp48
 70
     1
102
RTVSPropertyOp49
 70
     1
102
RTVSPropertyOp50
 70
     1
102
RTVSPropertyOp51
 70
     0
102
RTVSPropertyOp52
 70
     0
102
RTVSPropertyOp53
 70
     1
102
RTVSPropertyOp54
 70
     1
102
RTVSPropertyOp55
 70
     1
102
RTVSPropertyOp56
 70
     1
102
RTVSPropertyOp57
 70
     1
102
RTVSPropertyOp58
 70
     1
102
RTVSPropertyOp59
 70
     1
102
RTVSPropertyOp60
 70
     1
102
RTVSPropertyOp61
 70
     1
102
RTVSPropertyOp62
 70
     1
  0
XRECORD
  5
176C0
102
{ACAD_REACTORS
330
176BF
102
}
330
176BF
100
AcDbXrecord
280
     1
102
RTVSPost2010Prop28
280
     0
102
RTVSPost2010PropOp28
 70
     1
102
RTVSPost2010Prop29
280
     1
102
RTVSPost2010PropOp29
 70
     1
102
RTVSPost2010Prop30
280
     1
102
RTVSPost2010PropOp30
 70
     1
102
RTVSPost2010Prop31
280
     0
102
RTVSPost2010PropOp31
 70
     1
102
RTVSPost2010Prop32
280
     0
102
RTVSPost2010PropOp32
 70
     1
102
RTVSPost2010Prop33
280
     0
102
RTVSPost2010PropOp33
 70
     1
102
RTVSPost2010Prop34
280
     0
102
RTVSPost2010PropOp34
 70
     1
102
RTVSPost2010Prop35
280
     0
102
RTVSPost2010PropOp35
 70
     1
102
RTVSPost2010Prop36
280
     0
102
RTVSPost2010PropOp36
 70
     1
102
RTVSPost2010Prop37
 90
       50
102
RTVSPost2010PropOp37
 70
     1
102
RTVSPost2010Prop38
140
0.0
102
RTVSPost2010PropOp38
 70
     1
102
RTVSPost2010Prop39
140
1.0
102
RTVSPost2010PropOp39
 70
     1
102
RTVSPost2010Prop40
 90
        0
102
RTVSPost2010PropOp40
 70
     1
102
RTVSPost2010Prop41ColorIndex
 90
       18
102
RTVSPost2010Prop41ColorRGB
 90
        0
102
RTVSPost2010PropOp41
 70
     1
102
RTVSPost2010Prop42
 90
       50
102
RTVSPost2010PropOp42
 70
     1
102
RTVSPost2010Prop43
 90
        3
102
RTVSPost2010PropOp43
 70
     1
102
RTVSPost2010Prop44ColorIndex
 90
        5
102
RTVSPost2010Prop44ColorRGB
 90
      255
102
RTVSPost2010PropOp44
 70
     1
102
RTVSPost2010Prop45
280
     0
102
RTVSPost2010PropOp45
 70
     1
102
RTVSPost2010Prop46
 90
       50
102
RTVSPost2010PropOp46
 70
     1
102
RTVSPost2010Prop47
 90
       50
102
RTVSPost2010PropOp47
 70
     1
102
RTVSPost2010Prop48
 90
       50
102
RTVSPost2010PropOp48
 70
     1
102
RTVSPost2010Prop49
280
     0
102
RTVSPost2010PropOp49
 70
     1
102
RTVSPost2010Prop50
 90
       50
102
RTVSPost2010PropOp50
 70
     1
102
RTVSPost2010Prop51ColorIndex
 90
      256
102
RTVSPost2010Prop51ColorRGB
 90
-16777216
102
RTVSPost2010PropOp51
 70
     0
102
RTVSPost2010Prop52
140
1.0
102
RTVSPost2010PropOp52
 70
     0
102
RTVSPost2010Prop53
 90
        2
102
RTVSPost2010PropOp53
 70
     1
102
RTVSPost2010Prop54
  1
strokes_ogs.tif
102
RTVSPost2010PropOp54
 70
     1
102
RTVSPost2010Prop55
280
     0
102
RTVSPost2010PropOp55
 70
     1
102
RTVSPost2010Prop56
140
1.0
102
RTVSPost2010PropOp56
 70
     1
102
RTVSPost2010Prop57
140
1.0
102
RTVSPost2010PropOp57
 70
     1
102
RTVSPropertyOp0
 70
     1
102
RTVSPropertyOp1
 70
     1
102
RTVSPropertyOp2
 70
     1
102
RTVSPropertyOp3
 70
     1
102
RTVSPropertyOp4
 70
     1
102
RTVSPropertyOp5
 70
     1
102
RTVSPropertyOp6
 70
     1
102
RTVSPropertyOp7
 70
     1
102
RTVSPropertyOp8
 70
     1
102
RTVSPropertyOp9
 70
     1
102
RTVSPropertyOp10
 70
     1
102
RTVSPropertyOp11
 70
     1
102
RTVSPropertyOp12
 70
     1
102
RTVSPropertyOp13
 70
     1
102
RTVSPropertyOp14
 70
     1
102
RTVSPropertyOp15
 70
     1
102
RTVSPropertyOp16
 70
     1
102
RTVSPropertyOp17
 70
     1
102
RTVSPropertyOp18
 70
     1
102
RTVSPropertyOp19
 70
     1
102
RTVSPropertyOp20
 70
     1
102
RTVSPropertyOp21
 70
     1
102
RTVSPropertyOp22
 70
     1
102
RTVSPropertyOp23
 70
     1
102
RTVSPropertyOp24
 70
     1
102
RTVSPropertyOp25
 70
     1
102
RTVSPropertyOp26
 70
     1
102
RTVSPropertyOp27
 70
     1
102
RTVSPropertyOp28
 70
     1
102
RTVSPropertyOp29
 70
     1
102
RTVSPropertyOp30
 70
     1
102
RTVSPropertyOp31
 70
     1
102
RTVSPropertyOp32
 70
     1
102
RTVSPropertyOp33
 70
     1
102
RTVSPropertyOp34
 70
     1
102
RTVSPropertyOp35
 70
     1
102
RTVSPropertyOp36
 70
     1
102
RTVSPropertyOp37
 70
     1
102
RTVSPropertyOp38
 70
     1
102
RTVSPropertyOp39
 70
     1
102
RTVSPropertyOp40
 70
     1
102
RTVSPropertyOp41
 70
     1
102
RTVSPropertyOp42
 70
     1
102
RTVSPropertyOp43
 70
     1
102
RTVSPropertyOp44
 70
     1
102
RTVSPropertyOp45
 70
     1
102
RTVSPropertyOp46
 70
     1
102
RTVSPropertyOp47
 70
     1
102
RTVSPropertyOp48
 70
     1
102
RTVSPropertyOp49
 70
     1
102
RTVSPropertyOp50
 70
     1
102
RTVSPropertyOp51
 70
     0
102
RTVSPropertyOp52
 70
     0
102
RTVSPropertyOp53
 70
     1
102
RTVSPropertyOp54
 70
     1
102
RTVSPropertyOp55
 70
     1
102
RTVSPropertyOp56
 70
     1
102
RTVSPropertyOp57
 70
     1
102
RTVSPropertyOp58
 70
     1
102
RTVSPropertyOp59
 70
     1
102
RTVSPropertyOp60
 70
     1
102
RTVSPropertyOp61
 70
     1
102
RTVSPropertyOp62
 70
     1
  0
XRECORD
  5
176C2
102
{ACAD_REACTORS
330
176C1
102
}
330
176C1
100
AcDbXrecord
280
     1
102
RTVSPost2010Prop28
280
     0
102
RTVSPost2010PropOp28
 70
     1
102
RTVSPost2010Prop29
280
     1
102
RTVSPost2010PropOp29
 70
     1
102
RTVSPost2010Prop30
280
     1
102
RTVSPost2010PropOp30
 70
     1
102
RTVSPost2010Prop31
280
     0
102
RTVSPost2010PropOp31
 70
     1
102
RTVSPost2010Prop32
280
     0
102
RTVSPost2010PropOp32
 70
     1
102
RTVSPost2010Prop33
280
     0
102
RTVSPost2010PropOp33
 70
     1
102
RTVSPost2010Prop34
280
     0
102
RTVSPost2010PropOp34
 70
     1
102
RTVSPost2010Prop35
280
     0
102
RTVSPost2010PropOp35
 70
     1
102
RTVSPost2010Prop36
280
     0
102
RTVSPost2010PropOp36
 70
     1
102
RTVSPost2010Prop37
 90
       50
102
RTVSPost2010PropOp37
 70
     1
102
RTVSPost2010Prop38
140
0.0
102
RTVSPost2010PropOp38
 70
     1
102
RTVSPost2010Prop39
140
1.0
102
RTVSPost2010PropOp39
 70
     1
102
RTVSPost2010Prop40
 90
        0
102
RTVSPost2010PropOp40
 70
     1
102
RTVSPost2010Prop41ColorIndex
 90
       18
102
RTVSPost2010Prop41ColorRGB
 90
        0
102
RTVSPost2010PropOp41
 70
     1
102
RTVSPost2010Prop42
 90
       50
102
RTVSPost2010PropOp42
 70
     1
102
RTVSPost2010Prop43
 90
        3
102
RTVSPost2010PropOp43
 70
     1
102
RTVSPost2010Prop44ColorIndex
 90
        5
102
RTVSPost2010Prop44ColorRGB
 90
      255
102
RTVSPost2010PropOp44
 70
     1
102
RTVSPost2010Prop45
280
     0
102
RTVSPost2010PropOp45
 70
     1
102
RTVSPost2010Prop46
 90
       50
102
RTVSPost2010PropOp46
 70
     1
102
RTVSPost2010Prop47
 90
       50
102
RTVSPost2010PropOp47
 70
     1
102
RTVSPost2010Prop48
 90
       50
102
RTVSPost2010PropOp48
 70
     1
102
RTVSPost2010Prop49
280
     0
102
RTVSPost2010PropOp49
 70
     1
102
RTVSPost2010Prop50
 90
       50
102
RTVSPost2010PropOp50
 70
     1
102
RTVSPost2010Prop51ColorIndex
 90
      256
102
RTVSPost2010Prop51ColorRGB
 90
-16777216
102
RTVSPost2010PropOp51
 70
     0
102
RTVSPost2010Prop52
140
1.0
102
RTVSPost2010PropOp52
 70
     0
102
RTVSPost2010Prop53
 90
        2
102
RTVSPost2010PropOp53
 70
     1
102
RTVSPost2010Prop54
  1
strokes_ogs.tif
102
RTVSPost2010PropOp54
 70
     1
102
RTVSPost2010Prop55
280
     0
102
RTVSPost2010PropOp55
 70
     1
102
RTVSPost2010Prop56
140
1.0
102
RTVSPost2010PropOp56
 70
     1
102
RTVSPost2010Prop57
140
1.0
102
RTVSPost2010PropOp57
 70
     1
102
RTVSPropertyOp0
 70
     1
102
RTVSPropertyOp1
 70
     1
102
RTVSPropertyOp2
 70
     1
102
RTVSPropertyOp3
 70
     1
102
RTVSPropertyOp4
 70
     1
102
RTVSPropertyOp5
 70
     1
102
RTVSPropertyOp6
 70
     1
102
RTVSPropertyOp7
 70
     1
102
RTVSPropertyOp8
 70
     1
102
RTVSPropertyOp9
 70
     1
102
RTVSPropertyOp10
 70
     1
102
RTVSPropertyOp11
 70
     1
102
RTVSPropertyOp12
 70
     1
102
RTVSPropertyOp13
 70
     1
102
RTVSPropertyOp14
 70
     1
102
RTVSPropertyOp15
 70
     1
102
RTVSPropertyOp16
 70
     1
102
RTVSPropertyOp17
 70
     1
102
RTVSPropertyOp18
 70
     1
102
RTVSPropertyOp19
 70
     1
102
RTVSPropertyOp20
 70
     1
102
RTVSPropertyOp21
 70
     1
102
RTVSPropertyOp22
 70
     1
102
RTVSPropertyOp23
 70
     1
102
RTVSPropertyOp24
 70
     1
102
RTVSPropertyOp25
 70
     1
102
RTVSPropertyOp26
 70
     1
102
RTVSPropertyOp27
 70
     1
102
RTVSPropertyOp28
 70
     1
102
RTVSPropertyOp29
 70
     1
102
RTVSPropertyOp30
 70
     1
102
RTVSPropertyOp31
 70
     1
102
RTVSPropertyOp32
 70
     1
102
RTVSPropertyOp33
 70
     1
102
RTVSPropertyOp34
 70
     1
102
RTVSPropertyOp35
 70
     1
102
RTVSPropertyOp36
 70
     1
102
RTVSPropertyOp37
 70
     1
102
RTVSPropertyOp38
 70
     1
102
RTVSPropertyOp39
 70
     1
102
RTVSPropertyOp40
 70
     1
102
RTVSPropertyOp41
 70
     1
102
RTVSPropertyOp42
 70
     1
102
RTVSPropertyOp43
 70
     1
102
RTVSPropertyOp44
 70
     1
102
RTVSPropertyOp45
 70
     1
102
RTVSPropertyOp46
 70
     1
102
RTVSPropertyOp47
 70
     1
102
RTVSPropertyOp48
 70
     1
102
RTVSPropertyOp49
 70
     1
102
RTVSPropertyOp50
 70
     1
102
RTVSPropertyOp51
 70
     0
102
RTVSPropertyOp52
 70
     0
102
RTVSPropertyOp53
 70
     1
102
RTVSPropertyOp54
 70
     1
102
RTVSPropertyOp55
 70
     1
102
RTVSPropertyOp56
 70
     1
102
RTVSPropertyOp57
 70
     1
102
RTVSPropertyOp58
 70
     1
102
RTVSPropertyOp59
 70
     1
102
RTVSPropertyOp60
 70
     1
102
RTVSPropertyOp61
 70
     1
102
RTVSPropertyOp62
 70
     1
  0
XRECORD
  5
176A8
102
{ACAD_REACTORS
330
176A7
102
}
330
176A7
100
AcDbXrecord
280
     1
102
RTVSPost2010Prop28
280
     0
102
RTVSPost2010PropOp28
 70
     1
102
RTVSPost2010Prop29
280
     1
102
RTVSPost2010PropOp29
 70
     1
102
RTVSPost2010Prop30
280
     1
102
RTVSPost2010PropOp30
 70
     1
102
RTVSPost2010Prop31
280
     0
102
RTVSPost2010PropOp31
 70
     1
102
RTVSPost2010Prop32
280
     0
102
RTVSPost2010PropOp32
 70
     1
102
RTVSPost2010Prop33
280
     0
102
RTVSPost2010PropOp33
 70
     1
102
RTVSPost2010Prop34
280
     0
102
RTVSPost2010PropOp34
 70
     1
102
RTVSPost2010Prop35
280
     0
102
RTVSPost2010PropOp35
 70
     1
102
RTVSPost2010Prop36
280
     0
102
RTVSPost2010PropOp36
 70
     1
102
RTVSPost2010Prop37
 90
       50
102
RTVSPost2010PropOp37
 70
     1
102
RTVSPost2010Prop38
140
0.0
102
RTVSPost2010PropOp38
 70
     1
102
RTVSPost2010Prop39
140
1.0
102
RTVSPost2010PropOp39
 70
     1
102
RTVSPost2010Prop40
 90
        0
102
RTVSPost2010PropOp40
 70
     1
102
RTVSPost2010Prop41ColorIndex
 90
       18
102
RTVSPost2010Prop41ColorRGB
 90
        0
102
RTVSPost2010PropOp41
 70
     1
102
RTVSPost2010Prop42
 90
       50
102
RTVSPost2010PropOp42
 70
     1
102
RTVSPost2010Prop43
 90
        3
102
RTVSPost2010PropOp43
 70
     1
102
RTVSPost2010Prop44ColorIndex
 90
        5
102
RTVSPost2010Prop44ColorRGB
 90
      255
102
RTVSPost2010PropOp44
 70
     1
102
RTVSPost2010Prop45
280
     0
102
RTVSPost2010PropOp45
 70
     1
102
RTVSPost2010Prop46
 90
       50
102
RTVSPost2010PropOp46
 70
     1
102
RTVSPost2010Prop47
 90
       50
102
RTVSPost2010PropOp47
 70
     1
102
RTVSPost2010Prop48
 90
       50
102
RTVSPost2010PropOp48
 70
     1
102
RTVSPost2010Prop49
280
     0
102
RTVSPost2010PropOp49
 70
     1
102
RTVSPost2010Prop50
 90
       50
102
RTVSPost2010PropOp50
 70
     1
102
RTVSPost2010Prop51ColorIndex
 90
      256
102
RTVSPost2010Prop51ColorRGB
 90
-16777216
102
RTVSPost2010PropOp51
 70
     0
102
RTVSPost2010Prop52
140
1.0
102
RTVSPost2010PropOp52
 70
     0
102
RTVSPost2010Prop53
 90
        2
102
RTVSPost2010PropOp53
 70
     1
102
RTVSPost2010Prop54
  1
strokes_ogs.tif
102
RTVSPost2010PropOp54
 70
     1
102
RTVSPost2010Prop55
280
     0
102
RTVSPost2010PropOp55
 70
     1
102
RTVSPost2010Prop56
140
1.0
102
RTVSPost2010PropOp56
 70
     1
102
RTVSPost2010Prop57
140
1.0
102
RTVSPost2010PropOp57
 70
     1
102
RTVSPropertyOp0
 70
     1
102
RTVSPropertyOp1
 70
     1
102
RTVSPropertyOp2
 70
     1
102
RTVSPropertyOp3
 70
     1
102
RTVSPropertyOp4
 70
     1
102
RTVSPropertyOp5
 70
     1
102
RTVSPropertyOp6
 70
     1
102
RTVSPropertyOp7
 70
     1
102
RTVSPropertyOp8
 70
     1
102
RTVSPropertyOp9
 70
     1
102
RTVSPropertyOp10
 70
     1
102
RTVSPropertyOp11
 70
     1
102
RTVSPropertyOp12
 70
     1
102
RTVSPropertyOp13
 70
     1
102
RTVSPropertyOp14
 70
     1
102
RTVSPropertyOp15
 70
     1
102
RTVSPropertyOp16
 70
     1
102
RTVSPropertyOp17
 70
     1
102
RTVSPropertyOp18
 70
     1
102
RTVSPropertyOp19
 70
     1
102
RTVSPropertyOp20
 70
     1
102
RTVSPropertyOp21
 70
     1
102
RTVSPropertyOp22
 70
     1
102
RTVSPropertyOp23
 70
     1
102
RTVSPropertyOp24
 70
     1
102
RTVSPropertyOp25
 70
     1
102
RTVSPropertyOp26
 70
     1
102
RTVSPropertyOp27
 70
     1
102
RTVSPropertyOp28
 70
     1
102
RTVSPropertyOp29
 70
     1
102
RTVSPropertyOp30
 70
     1
102
RTVSPropertyOp31
 70
     1
102
RTVSPropertyOp32
 70
     1
102
RTVSPropertyOp33
 70
     1
102
RTVSPropertyOp34
 70
     1
102
RTVSPropertyOp35
 70
     1
102
RTVSPropertyOp36
 70
     1
102
RTVSPropertyOp37
 70
     1
102
RTVSPropertyOp38
 70
     1
102
RTVSPropertyOp39
 70
     1
102
RTVSPropertyOp40
 70
     1
102
RTVSPropertyOp41
 70
     1
102
RTVSPropertyOp42
 70
     1
102
RTVSPropertyOp43
 70
     1
102
RTVSPropertyOp44
 70
     1
102
RTVSPropertyOp45
 70
     1
102
RTVSPropertyOp46
 70
     1
102
RTVSPropertyOp47
 70
     1
102
RTVSPropertyOp48
 70
     1
102
RTVSPropertyOp49
 70
     1
102
RTVSPropertyOp50
 70
     1
102
RTVSPropertyOp51
 70
     0
102
RTVSPropertyOp52
 70
     0
102
RTVSPropertyOp53
 70
     1
102
RTVSPropertyOp54
 70
     1
102
RTVSPropertyOp55
 70
     1
102
RTVSPropertyOp56
 70
     1
102
RTVSPropertyOp57
 70
     1
102
RTVSPropertyOp58
 70
     1
102
RTVSPropertyOp59
 70
     1
102
RTVSPropertyOp60
 70
     1
102
RTVSPropertyOp61
 70
     1
102
RTVSPropertyOp62
 70
     1
  0
XRECORD
  5
176BC
102
{ACAD_REACTORS
330
176BB
102
}
330
176BB
100
AcDbXrecord
280
     1
102
RTVSPost2010Prop28
280
     0
102
RTVSPost2010PropOp28
 70
     1
102
RTVSPost2010Prop29
280
     1
102
RTVSPost2010PropOp29
 70
     1
102
RTVSPost2010Prop30
280
     1
102
RTVSPost2010PropOp30
 70
     1
102
RTVSPost2010Prop31
280
     0
102
RTVSPost2010PropOp31
 70
     1
102
RTVSPost2010Prop32
280
     0
102
RTVSPost2010PropOp32
 70
     1
102
RTVSPost2010Prop33
280
     0
102
RTVSPost2010PropOp33
 70
     1
102
RTVSPost2010Prop34
280
     0
102
RTVSPost2010PropOp34
 70
     1
102
RTVSPost2010Prop35
280
     0
102
RTVSPost2010PropOp35
 70
     1
102
RTVSPost2010Prop36
280
     0
102
RTVSPost2010PropOp36
 70
     1
102
RTVSPost2010Prop37
 90
       50
102
RTVSPost2010PropOp37
 70
     1
102
RTVSPost2010Prop38
140
0.0
102
RTVSPost2010PropOp38
 70
     1
102
RTVSPost2010Prop39
140
1.0
102
RTVSPost2010PropOp39
 70
     1
102
RTVSPost2010Prop40
 90
        0
102
RTVSPost2010PropOp40
 70
     1
102
RTVSPost2010Prop41ColorIndex
 90
       18
102
RTVSPost2010Prop41ColorRGB
 90
        0
102
RTVSPost2010PropOp41
 70
     1
102
RTVSPost2010Prop42
 90
       50
102
RTVSPost2010PropOp42
 70
     1
102
RTVSPost2010Prop43
 90
        3
102
RTVSPost2010PropOp43
 70
     1
102
RTVSPost2010Prop44ColorIndex
 90
        5
102
RTVSPost2010Prop44ColorRGB
 90
      255
102
RTVSPost2010PropOp44
 70
     1
102
RTVSPost2010Prop45
280
     0
102
RTVSPost2010PropOp45
 70
     1
102
RTVSPost2010Prop46
 90
       50
102
RTVSPost2010PropOp46
 70
     1
102
RTVSPost2010Prop47
 90
       50
102
RTVSPost2010PropOp47
 70
     1
102
RTVSPost2010Prop48
 90
       50
102
RTVSPost2010PropOp48
 70
     1
102
RTVSPost2010Prop49
280
     0
102
RTVSPost2010PropOp49
 70
     1
102
RTVSPost2010Prop50
 90
       50
102
RTVSPost2010PropOp50
 70
     1
102
RTVSPost2010Prop51ColorIndex
 90
      256
102
RTVSPost2010Prop51ColorRGB
 90
-16777216
102
RTVSPost2010PropOp51
 70
     0
102
RTVSPost2010Prop52
140
1.0
102
RTVSPost2010PropOp52
 70
     0
102
RTVSPost2010Prop53
 90
        2
102
RTVSPost2010PropOp53
 70
     1
102
RTVSPost2010Prop54
  1
strokes_ogs.tif
102
RTVSPost2010PropOp54
 70
     1
102
RTVSPost2010Prop55
280
     0
102
RTVSPost2010PropOp55
 70
     1
102
RTVSPost2010Prop56
140
1.0
102
RTVSPost2010PropOp56
 70
     1
102
RTVSPost2010Prop57
140
1.0
102
RTVSPost2010PropOp57
 70
     1
102
RTVSPropertyOp0
 70
     1
102
RTVSPropertyOp1
 70
     1
102
RTVSPropertyOp2
 70
     1
102
RTVSPropertyOp3
 70
     1
102
RTVSPropertyOp4
 70
     1
102
RTVSPropertyOp5
 70
     1
102
RTVSPropertyOp6
 70
     1
102
RTVSPropertyOp7
 70
     1
102
RTVSPropertyOp8
 70
     1
102
RTVSPropertyOp9
 70
     1
102
RTVSPropertyOp10
 70
     1
102
RTVSPropertyOp11
 70
     1
102
RTVSPropertyOp12
 70
     1
102
RTVSPropertyOp13
 70
     1
102
RTVSPropertyOp14
 70
     1
102
RTVSPropertyOp15
 70
     1
102
RTVSPropertyOp16
 70
     1
102
RTVSPropertyOp17
 70
     1
102
RTVSPropertyOp18
 70
     1
102
RTVSPropertyOp19
 70
     1
102
RTVSPropertyOp20
 70
     1
102
RTVSPropertyOp21
 70
     1
102
RTVSPropertyOp22
 70
     1
102
RTVSPropertyOp23
 70
     1
102
RTVSPropertyOp24
 70
     1
102
RTVSPropertyOp25
 70
     1
102
RTVSPropertyOp26
 70
     1
102
RTVSPropertyOp27
 70
     1
102
RTVSPropertyOp28
 70
     1
102
RTVSPropertyOp29
 70
     1
102
RTVSPropertyOp30
 70
     1
102
RTVSPropertyOp31
 70
     1
102
RTVSPropertyOp32
 70
     1
102
RTVSPropertyOp33
 70
     1
102
RTVSPropertyOp34
 70
     1
102
RTVSPropertyOp35
 70
     1
102
RTVSPropertyOp36
 70
     1
102
RTVSPropertyOp37
 70
     1
102
RTVSPropertyOp38
 70
     1
102
RTVSPropertyOp39
 70
     1
102
RTVSPropertyOp40
 70
     1
102
RTVSPropertyOp41
 70
     1
102
RTVSPropertyOp42
 70
     1
102
RTVSPropertyOp43
 70
     1
102
RTVSPropertyOp44
 70
     1
102
RTVSPropertyOp45
 70
     1
102
RTVSPropertyOp46
 70
     1
102
RTVSPropertyOp47
 70
     1
102
RTVSPropertyOp48
 70
     1
102
RTVSPropertyOp49
 70
     1
102
RTVSPropertyOp50
 70
     1
102
RTVSPropertyOp51
 70
     0
102
RTVSPropertyOp52
 70
     0
102
RTVSPropertyOp53
 70
     1
102
RTVSPropertyOp54
 70
     1
102
RTVSPropertyOp55
 70
     1
102
RTVSPropertyOp56
 70
     1
102
RTVSPropertyOp57
 70
     1
102
RTVSPropertyOp58
 70
     1
102
RTVSPropertyOp59
 70
     1
102
RTVSPropertyOp60
 70
     1
102
RTVSPropertyOp61
 70
     1
102
RTVSPropertyOp62
 70
     1
  0
XRECORD
  5
176C4
102
{ACAD_REACTORS
330
176C3
102
}
330
176C3
100
AcDbXrecord
280
     1
102
RTVSPost2010Prop28
280
     0
102
RTVSPost2010PropOp28
 70
     1
102
RTVSPost2010Prop29
280
     1
102
RTVSPost2010PropOp29
 70
     1
102
RTVSPost2010Prop30
280
     1
102
RTVSPost2010PropOp30
 70
     1
102
RTVSPost2010Prop31
280
     0
102
RTVSPost2010PropOp31
 70
     1
102
RTVSPost2010Prop32
280
     0
102
RTVSPost2010PropOp32
 70
     1
102
RTVSPost2010Prop33
280
     0
102
RTVSPost2010PropOp33
 70
     1
102
RTVSPost2010Prop34
280
     0
102
RTVSPost2010PropOp34
 70
     1
102
RTVSPost2010Prop35
280
     0
102
RTVSPost2010PropOp35
 70
     1
102
RTVSPost2010Prop36
280
     0
102
RTVSPost2010PropOp36
 70
     1
102
RTVSPost2010Prop37
 90
       50
102
RTVSPost2010PropOp37
 70
     1
102
RTVSPost2010Prop38
140
0.0
102
RTVSPost2010PropOp38
 70
     1
102
RTVSPost2010Prop39
140
1.0
102
RTVSPost2010PropOp39
 70
     1
102
RTVSPost2010Prop40
 90
        0
102
RTVSPost2010PropOp40
 70
     1
102
RTVSPost2010Prop41ColorIndex
 90
       18
102
RTVSPost2010Prop41ColorRGB
 90
        0
102
RTVSPost2010PropOp41
 70
     1
102
RTVSPost2010Prop42
 90
       50
102
RTVSPost2010PropOp42
 70
     1
102
RTVSPost2010Prop43
 90
        3
102
RTVSPost2010PropOp43
 70
     1
102
RTVSPost2010Prop44ColorIndex
 90
        5
102
RTVSPost2010Prop44ColorRGB
 90
      255
102
RTVSPost2010PropOp44
 70
     1
102
RTVSPost2010Prop45
280
     0
102
RTVSPost2010PropOp45
 70
     1
102
RTVSPost2010Prop46
 90
       50
102
RTVSPost2010PropOp46
 70
     1
102
RTVSPost2010Prop47
 90
       50
102
RTVSPost2010PropOp47
 70
     1
102
RTVSPost2010Prop48
 90
       50
102
RTVSPost2010PropOp48
 70
     1
102
RTVSPost2010Prop49
280
     0
102
RTVSPost2010PropOp49
 70
     1
102
RTVSPost2010Prop50
 90
       50
102
RTVSPost2010PropOp50
 70
     1
102
RTVSPost2010Prop51ColorIndex
 90
      256
102
RTVSPost2010Prop51ColorRGB
 90
-16777216
102
RTVSPost2010PropOp51
 70
     0
102
RTVSPost2010Prop52
140
1.0
102
RTVSPost2010PropOp52
 70
     0
102
RTVSPost2010Prop53
 90
        2
102
RTVSPost2010PropOp53
 70
     1
102
RTVSPost2010Prop54
  1
strokes_ogs.tif
102
RTVSPost2010PropOp54
 70
     1
102
RTVSPost2010Prop55
280
     0
102
RTVSPost2010PropOp55
 70
     1
102
RTVSPost2010Prop56
140
1.0
102
RTVSPost2010PropOp56
 70
     1
102
RTVSPost2010Prop57
140
1.0
102
RTVSPost2010PropOp57
 70
     1
102
RTVSPropertyOp0
 70
     1
102
RTVSPropertyOp1
 70
     1
102
RTVSPropertyOp2
 70
     1
102
RTVSPropertyOp3
 70
     1
102
RTVSPropertyOp4
 70
     1
102
RTVSPropertyOp5
 70
     1
102
RTVSPropertyOp6
 70
     1
102
RTVSPropertyOp7
 70
     1
102
RTVSPropertyOp8
 70
     1
102
RTVSPropertyOp9
 70
     1
102
RTVSPropertyOp10
 70
     1
102
RTVSPropertyOp11
 70
     1
102
RTVSPropertyOp12
 70
     1
102
RTVSPropertyOp13
 70
     1
102
RTVSPropertyOp14
 70
     1
102
RTVSPropertyOp15
 70
     1
102
RTVSPropertyOp16
 70
     1
102
RTVSPropertyOp17
 70
     1
102
RTVSPropertyOp18
 70
     1
102
RTVSPropertyOp19
 70
     1
102
RTVSPropertyOp20
 70
     1
102
RTVSPropertyOp21
 70
     1
102
RTVSPropertyOp22
 70
     1
102
RTVSPropertyOp23
 70
     1
102
RTVSPropertyOp24
 70
     1
102
RTVSPropertyOp25
 70
     1
102
RTVSPropertyOp26
 70
     1
102
RTVSPropertyOp27
 70
     1
102
RTVSPropertyOp28
 70
     1
102
RTVSPropertyOp29
 70
     1
102
RTVSPropertyOp30
 70
     1
102
RTVSPropertyOp31
 70
     1
102
RTVSPropertyOp32
 70
     1
102
RTVSPropertyOp33
 70
     1
102
RTVSPropertyOp34
 70
     1
102
RTVSPropertyOp35
 70
     1
102
RTVSPropertyOp36
 70
     1
102
RTVSPropertyOp37
 70
     1
102
RTVSPropertyOp38
 70
     1
102
RTVSPropertyOp39
 70
     1
102
RTVSPropertyOp40
 70
     1
102
RTVSPropertyOp41
 70
     1
102
RTVSPropertyOp42
 70
     1
102
RTVSPropertyOp43
 70
     1
102
RTVSPropertyOp44
 70
     1
102
RTVSPropertyOp45
 70
     1
102
RTVSPropertyOp46
 70
     1
102
RTVSPropertyOp47
 70
     1
102
RTVSPropertyOp48
 70
     1
102
RTVSPropertyOp49
 70
     1
102
RTVSPropertyOp50
 70
     1
102
RTVSPropertyOp51
 70
     0
102
RTVSPropertyOp52
 70
     0
102
RTVSPropertyOp53
 70
     1
102
RTVSPropertyOp54
 70
     1
102
RTVSPropertyOp55
 70
     1
102
RTVSPropertyOp56
 70
     1
102
RTVSPropertyOp57
 70
     1
102
RTVSPropertyOp58
 70
     1
102
RTVSPropertyOp59
 70
     1
102
RTVSPropertyOp60
 70
     1
102
RTVSPropertyOp61
 70
     1
102
RTVSPropertyOp62
 70
     1
  0
ENDSEC
  0
EOF
